<?xml version="1.0" encoding="UTF-8"?>
<svg xmlns="http://www.w3.org/2000/svg" xmlns:xlink="http://www.w3.org/1999/xlink" version="1.2" >
<font id="Cocogoose Pro">
<font-face  font-family="Cocogoose Pro" units-per-em="1920" ascent="1582" descent="-374" font-style="normal" font-weight="400" font-stretch="normal" cap-height="1426" x-height="1225" underline-position="-144" underline-thickness="96" />
<missing-glyph  horiz-adv-x="602" d="M657 972 Q603 989 540 989 Q443 989 361.5 952.5 Q280 916 220.5 854.5 Q161 793 127.5 712 Q94 631 94 541 Q94 451 128 369.5 Q162 288 222 226.5 Q282 165 363.5 128.5 Q445 92 540 92 Q632 92 713.5 127 Q795 162 855.5 223 Q916 284 951.5 366 Q987 448 987 541 Q987 623 960.5 693.5 Q934 764 889 819.5 Q844 875 784 914 Q724 953 657 972 Z M670 73 Q638 64 606.5 60 Q575 56 540 56 Q436 56 347 95 Q258 134 193 200.5 Q128 267 91 355 Q54 443 54 541 Q54 645 93 734 Q132 823 198.5 888.5 Q265 954 353.5 991.5 Q442 1029 540 1029 Q645 1029 734 988.5 Q823 948 887.5 880.5 Q952 813 988.5 725 Q1025 637 1025 541 Q1025 453 997.5 377.5 Q970 302 922 241.5 Q874 181 809 138 Q744 95 670 73 Z M941 541 Q941 468 917.5 403 Q894 338 851 284 L315 284 L839 812 Q941 686 941 541 Z M269 841 Q324 890 393 917.5 Q462 945 540 945 Q618 945 686 917 Q754 889 806 841 L269 841 Z M238 271 Q190 326 164 394.5 Q138 463 138 541 Q138 615 161.5 679 Q185 743 228 797 L762 797 L238 271 Z M810 240 Q755 194 686.5 166 Q618 138 540 138 Q462 138 394 166 Q326 194 271 240 L810 240 Z " />
<glyph glyph-name="NULL" d="" />
<glyph glyph-name="nonmarkingreturn" unicode="&#xd;" horiz-adv-x="601" d="" />
<glyph glyph-name="space" unicode="&#x20;" horiz-adv-x="601" d="" />
<glyph glyph-name="F" unicode="F" horiz-adv-x="1244" d="M161 1383 Q161 1426 203 1426 L1117 1426 Q1159 1426 1159 1383 L1159 1137 Q1159 1095 1117 1095 L532 1095 L532 799 L961 799 Q1003 799 1003 756 L1003 523 Q1003 481 961 481 L532 481 L532 42 Q532 0 490 0 L203 0 Q161 0 161 42 L161 1383 Z " />
<glyph glyph-name="H" unicode="H" horiz-adv-x="1538" d="M1009 588 L527 588 L527 42 Q527 0 481 0 L199 0 Q157 0 157 42 L157 1383 Q157 1400 167.5 1413 Q178 1426 199 1426 L487 1426 Q499 1426 513 1418.5 Q527 1411 527 1385 L527 927 L1009 927 L1009 1383 Q1009 1400 1019.5 1413 Q1030 1426 1051 1426 L1339 1426 Q1351 1426 1365 1418.5 Q1379 1411 1379 1385 L1379 42 Q1379 0 1333 0 L1051 0 Q1009 0 1009 42 L1009 588 Z " />
<glyph glyph-name="I" unicode="I" horiz-adv-x="684" d="M157 1383 Q157 1426 199 1426 L486 1426 Q528 1426 528 1383 L528 42 Q528 0 486 0 L199 0 Q157 0 157 42 L157 1383 Z " />
<glyph glyph-name="J" unicode="J" horiz-adv-x="866" d="M352 1385 Q352 1399 357 1407.5 Q362 1416 368.5 1420 Q375 1424 382 1425 Q389 1426 393 1426 L671 1426 Q700 1426 711.5 1415.5 Q723 1405 723 1376 L723 59 Q723 10 714 -33 Q698 -108 655.5 -174.5 Q613 -241 552 -290.5 Q491 -340 415 -368.5 Q339 -397 255 -397 Q212 -397 163.5 -386.5 Q115 -376 67.5 -356 Q20 -336 -22.5 -305.5 Q-65 -275 -96 -235 Q-101 -229 -107.5 -219 Q-114 -209 -118 -197 Q-122 -185 -121.5 -173 Q-121 -161 -111 -152 L55 2 Q71 17 83.5 19.5 Q96 22 106 18 Q116 14 124.5 6 Q133 -2 141 -9 Q163 -26 184.5 -37.5 Q206 -49 236 -49 Q258 -49 279 -40.5 Q300 -32 316 -17.5 Q332 -3 342 16.5 Q352 36 352 59 L352 1385 Z " />
<glyph glyph-name="K" unicode="K" horiz-adv-x="1467" d="M899 818 L1414 45 Q1428 25 1424.5 12.5 Q1421 0 1401 0 L1037 0 Q1016 0 1003 11 Q990 22 978 42 L663 531 L522 360 L522 42 Q522 0 480 0 L193 0 Q152 0 152 42 L152 1383 Q152 1403 163 1414.5 Q174 1426 193 1426 L476 1426 Q481 1426 489 1423 Q497 1420 504.5 1415 Q512 1410 517 1401.5 Q522 1393 522 1383 L522 857 L935 1394 Q953 1417 968 1421.5 Q983 1426 1006 1426 L1352 1426 Q1375 1426 1375 1410.5 Q1375 1395 1363 1381 L899 818 Z " />
<glyph glyph-name="L" unicode="L" horiz-adv-x="1131" d="M121 1383 Q121 1404 133 1415 Q145 1426 162 1426 L449 1426 Q491 1426 491 1383 L491 340 L1023 340 Q1065 340 1065 298 L1065 42 Q1065 0 1023 0 L162 0 Q121 0 121 42 L121 1383 Z " />
<glyph glyph-name="M" unicode="M" horiz-adv-x="1843" d="M537 814 L456 42 Q454 21 444.5 10.5 Q435 0 414 0 L141 0 Q120 0 108.5 10.5 Q97 21 99 42 L242 1383 Q244 1404 253.5 1415 Q263 1426 284 1426 L620 1426 Q641 1426 648 1415.5 Q655 1405 662 1383 L924 521 L1186 1383 Q1193 1405 1200 1415.5 Q1207 1426 1228 1426 L1564 1426 Q1585 1426 1594.5 1415 Q1604 1404 1606 1383 L1749 42 Q1751 21 1739.5 10.5 Q1728 0 1707 0 L1434 0 Q1413 0 1403.5 10.5 Q1394 21 1392 42 L1314 795 L1090 44 Q1082 18 1073 9 Q1064 0 1043 0 L805 0 Q784 0 774.5 9 Q765 18 758 44 L537 814 Z " />
<glyph glyph-name="P" unicode="P" horiz-adv-x="1288" d="M136 1383 Q136 1404 148 1415 Q160 1426 177 1426 L793 1426 Q859 1426 917.5 1407.5 Q976 1389 1025.5 1357 Q1075 1325 1114 1280.5 Q1153 1236 1180.5 1184 Q1208 1132 1222.5 1074.5 Q1237 1017 1237 959 Q1237 872 1205.5 789.5 Q1174 707 1116.5 642 Q1059 577 978.5 537.5 Q898 498 800 498 L506 498 L506 42 Q506 0 462 0 L177 0 Q136 0 136 42 L136 1383 Z M506 1121 L506 801 L713 801 Q748 801 775.5 814.5 Q803 828 821.5 850.5 Q840 873 850 902 Q860 931 860 961 Q860 990 850 1018.5 Q840 1047 821 1070 Q802 1093 774.5 1107 Q747 1121 713 1121 L506 1121 Z " />
<glyph glyph-name="R" unicode="R" horiz-adv-x="1350" d="M156 1383 Q156 1399 166 1412.5 Q176 1426 197 1426 L834 1426 Q936 1426 1019.5 1385 Q1103 1344 1163 1277 Q1223 1210 1256 1123.5 Q1289 1037 1289 947 Q1289 890 1272 833.5 Q1255 777 1224 726 Q1193 675 1150 631 Q1107 587 1055 554 L1330 42 Q1338 28 1332 14 Q1326 0 1306 0 L960 0 Q940 0 930 8.5 Q920 17 908 40 L681 474 L526 474 L526 42 Q526 0 484 0 L197 0 Q156 0 156 42 L156 1383 Z M526 1129 L526 781 L739 781 Q777 781 808.5 796 Q840 811 862.5 835 Q885 859 897.5 890 Q910 921 910 954 Q910 985 897.5 1016.5 Q885 1048 862 1073 Q839 1098 807.5 1113.5 Q776 1129 739 1129 L526 1129 Z " />
<glyph glyph-name="S" unicode="S" horiz-adv-x="1260" d="M115 225 Q106 235 98.5 245 Q91 255 88 265.5 Q85 276 88.5 287 Q92 298 104 310 L270 468 Q289 487 307 481.5 Q325 476 344 460 Q371 437 404.5 411 Q438 385 476 362.5 Q514 340 556 325 Q598 310 642 310 Q691 310 722 321 Q753 332 771 350 Q789 368 795.5 392.5 Q802 417 802 444 Q802 474 781 497.5 Q760 521 729 538.5 Q698 556 664 569 Q630 582 604 591 Q488 631 400 678 Q312 725 253 782 Q194 839 163.5 908 Q133 977 133 1061 Q133 1150 171 1223 Q209 1296 277.5 1347.5 Q346 1399 441.5 1427.5 Q537 1456 653 1456 Q717 1456 784 1442 Q851 1428 912.5 1403.5 Q974 1379 1027 1344.5 Q1080 1310 1118 1269 Q1138 1246 1138 1225 Q1138 1204 1115 1181 L968 1024 Q948 1004 927.5 1010.5 Q907 1017 887 1035 Q862 1058 825.5 1083.5 Q789 1109 747 1124 Q721 1133 680 1137 Q639 1141 599.5 1133.5 Q560 1126 531.5 1104.5 Q503 1083 503 1042 Q503 1015 518 995.5 Q533 976 562 959.5 Q591 943 632 927.5 Q673 912 726 895 Q828 861 912.5 824 Q997 787 1057.5 736.5 Q1118 686 1151.5 616 Q1185 546 1185 446 Q1185 341 1143.5 255 Q1102 169 1028.5 108.5 Q955 48 855 15 Q755 -18 637 -18 Q563 -18 490 1.5 Q417 21 349.5 54 Q282 87 222.5 131 Q163 175 115 225 Z " />
<glyph glyph-name="T" unicode="T" horiz-adv-x="1279" d="M77 1383 Q77 1426 119 1426 L1161 1426 Q1203 1426 1203 1383 L1203 1140 Q1203 1097 1161 1097 L820 1097 L820 42 Q820 0 777 0 L500 0 Q458 0 458 42 L458 1097 L119 1097 Q77 1097 77 1140 L77 1383 Z " />
<glyph glyph-name="A" unicode="A" horiz-adv-x="1469" d="M563 1383 Q580 1426 622 1426 L857 1426 Q898 1426 915 1383 L1439 42 Q1455 0 1412 0 L1126 0 Q1083 0 1069 42 L1002 230 L478 230 L413 42 Q399 0 355 0 L69 0 Q25 0 42 42 L563 1383 Z M586 539 L892 539 L737 975 L586 539 Z " />
<glyph glyph-name="U" unicode="U" horiz-adv-x="1488" d="M522 569 Q522 498 541.5 448.5 Q561 399 593.5 368 Q626 337 668.5 322.5 Q711 308 757 308 Q805 308 848 325 Q891 342 923 375 Q955 408 974 456.5 Q993 505 993 569 L993 1383 Q993 1400 1005 1413 Q1017 1426 1037 1426 L1317 1426 Q1340 1426 1352 1413 Q1364 1400 1364 1383 L1364 574 Q1364 406 1314.5 292 Q1265 178 1181.5 108.5 Q1098 39 988 8.5 Q878 -22 757 -22 Q636 -22 526 9 Q416 40 332.5 110.5 Q249 181 199.5 295 Q150 409 150 574 L150 1383 Q150 1400 160.5 1413 Q171 1426 188 1426 L481 1426 Q507 1426 514.5 1413.5 Q522 1401 522 1383 L522 569 Z " />
<glyph glyph-name="V" unicode="V" horiz-adv-x="1418" d="M875 42 Q858 0 817 0 L591 0 Q549 0 533 42 L18 1385 Q1 1428 45 1428 L351 1426 Q394 1426 408 1383 L703 523 L995 1383 Q1010 1426 1052 1426 L1362 1426 Q1406 1426 1389 1383 L875 42 Z " />
<glyph glyph-name="W" unicode="W" horiz-adv-x="2089" d="M1029 412 L894 42 Q879 0 836 0 L597 0 Q555 0 539 42 L26 1383 Q19 1401 25.5 1413.5 Q32 1426 53 1426 L363 1426 Q405 1426 420 1383 L713 518 L980 1383 Q987 1405 1002 1415.5 Q1017 1426 1038 1426 L1356 1426 Q1376 1426 1382.5 1412.5 Q1389 1399 1383 1383 L1210 910 L1347 514 L1655 1383 Q1670 1426 1713 1426 L2027 1426 Q2048 1426 2054.5 1413 Q2061 1400 2054 1383 L1517 42 Q1500 0 1458 0 L1233 0 Q1190 0 1174 42 L1029 412 Z " />
<glyph glyph-name="X" unicode="X" horiz-adv-x="1396" d="M900 729 L1359 42 Q1372 23 1364.5 11.5 Q1357 0 1336 0 L1009 0 Q988 0 974.5 11 Q961 22 948 42 L694 423 L438 42 Q421 16 409.5 8 Q398 0 377 0 L53 0 Q32 0 24.5 11 Q17 22 30 42 L489 729 L54 1382 Q42 1400 46 1413 Q50 1426 71 1426 L403 1426 Q424 1426 436.5 1416 Q449 1406 464 1383 L695 1037 L926 1383 Q940 1403 953 1414.5 Q966 1426 987 1426 L1315 1426 Q1336 1426 1343 1412.5 Q1350 1399 1339 1383 L900 729 Z " />
<glyph glyph-name="Y" unicode="Y" horiz-adv-x="1354" d="M487 581 L34 1383 Q23 1403 31.5 1414.5 Q40 1426 61 1426 L390 1426 Q411 1426 423.5 1415.5 Q436 1405 447 1383 L673 902 L897 1383 Q908 1405 920.5 1415.5 Q933 1426 954 1426 L1287 1426 Q1308 1426 1316.5 1414.5 Q1325 1403 1314 1383 L858 583 L858 42 Q858 0 816 0 L529 0 Q487 0 487 42 L487 581 Z " />
<glyph glyph-name="Z" unicode="Z" horiz-adv-x="1375" d="M1268 1426 Q1307 1426 1307 1388 L1307 1176 Q1306 1166 1302 1159.5 Q1298 1153 1295 1149 L607 328 L1274 328 Q1311 328 1311 291 L1311 36 Q1311 -1 1274 -1 L145 -1 Q107 -1 107 36 L107 247 Q107 263 111.5 272.5 Q116 282 124 290 L804 1094 L142 1094 Q104 1094 104 1132 L104 1388 Q104 1426 142 1426 L1268 1426 Z " />
<glyph glyph-name="bar" unicode="&#x7c;" horiz-adv-x="589" d="M156 1383 Q156 1426 198 1426 L386 1426 Q428 1426 428 1383 L428 -330 Q428 -372 386 -372 L198 -372 Q156 -372 156 -330 L156 1383 Z " />
<glyph glyph-name="brokenbar" unicode="&#xa6;" horiz-adv-x="574" d="M157 1383 Q157 1426 199 1426 L387 1426 Q429 1426 429 1383 L429 670 Q429 628 387 628 L199 628 Q157 628 157 670 L157 1383 Z M157 385 Q157 428 199 428 L387 428 Q429 428 429 385 L429 -328 Q429 -370 387 -370 L199 -370 Q157 -370 157 -328 L157 385 Z " />
<glyph glyph-name="bracketleft" unicode="&#x5b;" horiz-adv-x="804" d="M204 1536 Q204 1579 246 1579 L681 1579 Q695 1579 702.5 1571 Q710 1563 710 1549 L710 1289 Q710 1275 701 1267 Q692 1259 679 1259 L546 1259 L546 -12 L681 -12 Q695 -12 702.5 -20 Q710 -28 710 -42 L710 -302 Q710 -316 701 -324 Q692 -332 679 -332 L246 -332 Q204 -332 204 -290 L204 1536 Z " />
<glyph glyph-name="bracketright" unicode="&#x5d;" horiz-adv-x="804" d="M570.012 1536 Q570.012 1579 528.015 1579 L93.0416 1579 Q79.0424 1579 71.5429 1571 Q64.0433 1563 64.0433 1549 L64.0433 1289 Q64.0433 1275 73.0428 1267 Q82.0422 1259 95.0414 1259 L228.033 1259 L228.033 -12 L93.0416 -12 Q79.0424 -12 71.5429 -20 Q64.0433 -28 64.0433 -42 L64.0433 -302 Q64.0433 -316 73.0428 -324 Q82.0422 -332 95.0414 -332 L528.015 -332 Q570.012 -332 570.012 -290 L570.012 1536 Z " />
<glyph glyph-name="braceleft" unicode="&#x7b;" horiz-adv-x="851" d="M73 763 Q73 779 83.5 786 Q94 793 102 793 L107 793 Q168 793 195 801 Q222 809 222 832 L222 1200 Q222 1324 256 1408 Q290 1492 342 1546 Q394 1600 455.5 1628.5 Q517 1657 572.5 1670 Q628 1683 669 1684.5 Q710 1686 721 1686 Q735 1686 742.5 1678 Q750 1670 750 1656 L750 1343 Q750 1329 741 1321 Q732 1313 719 1313 Q711 1313 688.5 1311 Q666 1309 642 1298.5 Q618 1288 599.5 1265 Q581 1242 581 1200 L581 736 Q581 703 567 674.5 Q553 646 529 621 Q553 596 567 567.5 Q581 539 581 507 L581 43 Q581 1 599.5 -22 Q618 -45 642 -55.5 Q666 -66 688.5 -68 Q711 -70 719 -70 Q732 -70 741 -78 Q750 -86 750 -100 L750 -413 Q750 -427 742.5 -435 Q735 -443 721 -443 Q710 -443 669 -441.5 Q628 -440 572.5 -427 Q517 -414 455.5 -385.5 Q394 -357 342 -303 Q290 -249 256 -165 Q222 -81 222 43 L222 411 Q222 434 195 442 Q168 450 107 450 L100 450 Q92 451 82.5 458 Q73 465 73 480 L73 763 Z " />
<glyph glyph-name="underscore" unicode="&#x5f;" horiz-adv-x="1138" d="M87 -30 Q87 -16 95.5 -7 Q104 2 118 2 L1031 2 Q1045 2 1052.5 -6 Q1060 -14 1060 -28 L1060 -230 Q1060 -244 1051 -252 Q1042 -260 1029 -260 L116 -260 Q108 -260 97.5 -253 Q87 -246 87 -230 L87 -30 Z " />
<glyph glyph-name="endash" unicode="&#x2013;" horiz-adv-x="1288" d="M159 678 Q159 696 170 705.5 Q181 715 192 715 L1092 715 Q1125 715 1125 681 L1125 497 Q1125 480 1114.5 472 Q1104 464 1088 464 L192 464 Q181 464 170 472 Q159 480 159 497 L159 678 Z " />
<glyph glyph-name="bullet" unicode="&#x2022;" horiz-adv-x="484" d="M84 631 Q84 666 97 697 Q110 728 133 751 Q156 774 186.5 787 Q217 800 252 800 Q287 800 318 787 Q349 774 372 751 Q395 728 408 697 Q421 666 421 631 Q421 596 408 565.5 Q395 535 372 512 Q349 489 318 476 Q287 463 252 463 Q217 463 186.5 476 Q156 489 133 512 Q110 535 97 565.5 Q84 596 84 631 Z " />
<glyph glyph-name="asciicircum" unicode="&#x5e;" horiz-adv-x="937" d="M794.913 1187.41 Q813.171 1169.15 814.475 1148.94 Q815.779 1128.73 794.913 1109.16 L693.195 1011.35 Q673.634 993.095 653.421 993.747 Q633.208 994.399 616.255 1011.35 L454.549 1171.76 L296.756 1008.74 Q279.803 991.791 259.59 991.139 Q239.377 990.487 219.815 1008.74 L115.489 1109.16 Q94.624 1128.73 95.9281 1148.94 Q97.2322 1169.15 115.489 1187.41 L418.035 1488.67 Q424.556 1495.19 434.336 1501.06 Q444.117 1506.93 458.462 1506.93 Q472.806 1506.93 479.979 1503.01 Q487.151 1499.1 497.584 1488.67 L794.913 1187.41 Z " />
<glyph glyph-name="backslash" unicode="&#x5c;" horiz-adv-x="1043" d="M37 1383 Q19 1426 61 1426 L347 1426 Q388 1426 408 1383 L1010 42 Q1018 24 1013 12 Q1008 0 987 0 L698 0 Q655 0 637 42 L37 1383 Z " />
<glyph glyph-name="asciitilde" unicode="&#x7e;" horiz-adv-x="1265" d="M333.288 445.154 Q322.503 431.682 309.696 431.682 Q296.888 431.682 284.755 438.418 Q272.622 445.154 261.162 455.259 Q249.703 465.364 241.614 473.448 L159.377 552.938 Q140.503 570.452 132.415 581.231 Q124.326 592.009 125.674 601.44 Q127.022 610.871 135.785 622.997 Q144.548 635.122 159.377 656.679 Q211.955 734.822 287.451 778.609 Q362.947 822.396 447.88 822.396 Q496.414 821.048 544.273 800.165 Q592.132 779.282 635.272 755.031 Q678.413 730.78 714.813 711.244 Q751.213 691.708 778.176 691.708 Q813.228 691.708 832.102 709.223 Q850.976 726.738 877.938 759.073 Q902.205 790.061 927.146 788.713 Q952.086 787.366 972.309 765.809 L1089.6 647.248 Q1107.12 629.733 1105.77 614.913 Q1104.43 600.093 1097.69 592.009 Q1039.72 503.088 958.827 453.238 Q877.938 403.388 780.872 403.388 Q729.643 403.388 683.806 423.598 Q637.969 443.807 596.85 468.058 Q555.732 492.31 519.332 512.519 Q482.932 532.728 450.577 532.728 Q426.31 532.728 408.784 523.971 Q391.258 515.214 378.451 501.741 Q365.644 488.268 354.858 473.448 Q344.073 458.627 333.288 445.154 Z " />
<glyph glyph-name="braceright" unicode="&#x7d;" horiz-adv-x="843" d="M754.004 763 Q754.004 779 743.505 786 Q733.006 793 725.006 793 L720.007 793 Q659.01 793 632.012 801 Q605.014 809 605.014 832 L605.014 1200 Q605.014 1324 571.016 1408 Q537.018 1492 485.021 1546 Q433.024 1600 371.528 1628.5 Q310.032 1657 254.535 1670 Q199.038 1683 158.041 1684.5 Q117.043 1686 106.044 1686 Q92.0449 1686 84.5453 1678 Q77.0458 1670 77.0458 1656 L77.0458 1343 Q77.0458 1329 86.0452 1321 Q95.0447 1313 108.044 1313 Q116.043 1313 138.542 1311 Q161.041 1309 185.039 1298.5 Q209.038 1288 227.537 1265 Q246.035 1242 246.035 1200 L246.035 736 Q246.035 703 260.035 674.5 Q274.034 646 298.032 621 Q274.034 596 260.035 567.5 Q246.035 539 246.035 507 L246.035 43 Q246.035 1 227.537 -22 Q209.038 -45 185.039 -55.5 Q161.041 -66 138.542 -68 Q116.043 -70 108.044 -70 Q95.0447 -70 86.0452 -78 Q77.0458 -86 77.0458 -100 L77.0458 -413 Q77.0458 -427 84.5453 -435 Q92.0449 -443 106.044 -443 Q117.043 -443 158.041 -441.5 Q199.038 -440 254.535 -427 Q310.032 -414 371.528 -385.5 Q433.024 -357 485.021 -303 Q537.018 -249 571.016 -165 Q605.014 -81 605.014 43 L605.014 411 Q605.014 434 632.012 442 Q659.01 450 720.007 450 L727.006 450 Q735.006 451 744.505 458 Q754.004 465 754.004 480 L754.004 763 Z " />
<glyph glyph-name="Euro" unicode="&#x20ac;" horiz-adv-x="1480" d="M71 629 Q71 647 82 656.5 Q93 666 104 666 L153 666 Q152 678 151.5 690.5 Q151 703 151 716 L151 745 L104 745 Q93 745 82 753 Q71 761 71 778 L71 919 Q71 937 82 946.5 Q93 956 104 956 L191 956 Q228 1064 296 1155.5 Q364 1247 455.5 1313 Q547 1379 657 1416 Q767 1453 888 1453 Q953 1453 1017 1443 Q1081 1433 1139.5 1412 Q1198 1391 1250.5 1359 Q1303 1327 1345 1284 Q1358 1270 1362 1256.5 Q1366 1243 1358 1233 L1180 1019 Q1169 1005 1152.5 1005.5 Q1136 1006 1121 1018 Q1073 1056 1015 1079 Q957 1102 888 1102 Q796 1102 721.5 1062.5 Q647 1023 598 956 L837 956 Q870 956 870 922 L870 778 Q870 761 859.5 753 Q849 745 833 745 L523 745 Q522 737 522 730.5 Q522 724 522 716 Q522 690 525 666 L837 666 Q870 666 870 632 L870 488 Q870 471 859.5 463 Q849 455 833 455 L614 455 Q664 397 733.5 363.5 Q803 330 888 330 Q957 330 1015 351.5 Q1073 373 1121 411 Q1162 442 1189 411 L1351 213 Q1382 175 1342 141 Q1248 62 1133.5 20.5 Q1019 -21 888 -21 Q770 -21 662.5 14.5 Q555 50 465 113 Q375 176 306.5 263.5 Q238 351 198 455 L104 455 Q93 455 82 463 Q71 471 71 488 L71 629 Z " />
<glyph glyph-name="E" unicode="E" horiz-adv-x="1296" d="M154 1383 Q154 1426 196 1426 L1151 1426 Q1193 1426 1193 1383 L1193 1137 Q1193 1095 1151 1095 L525 1095 L525 858 L1000 858 Q1022 858 1034.5 847.5 Q1047 837 1047 814 L1047 616 Q1047 574 1000 574 L525 574 L525 329 L1169 329 Q1212 329 1212 287 L1212 42 Q1212 0 1169 0 L196 0 Q154 0 154 42 L154 1383 Z " />
<glyph glyph-name="ellipsis" unicode="&#x2026;" horiz-adv-x="1402" d="M1019 283 Q1019 304 1031 313.5 Q1043 323 1057 323 L1323 323 Q1335 323 1343 318.5 Q1351 314 1355 307.5 Q1359 301 1360.5 294.5 Q1362 288 1362 284 L1362 38 Q1362 26 1357 18.5 Q1352 11 1345.5 7 Q1339 3 1332.5 1.5 Q1326 0 1323 0 L1057 0 Q1054 0 1047.5 1.5 Q1041 3 1034.5 7 Q1028 11 1023.5 18.5 Q1019 26 1019 38 L1019 283 Z M540 283 Q540 304 552 313.5 Q564 323 578 323 L844 323 Q856 323 864 318.5 Q872 314 876 307.5 Q880 301 881.5 294.5 Q883 288 883 284 L883 38 Q883 26 878 18.5 Q873 11 866.5 7 Q860 3 853.5 1.5 Q847 0 844 0 L578 0 Q575 0 568.5 1.5 Q562 3 555.5 7 Q549 11 544.5 18.5 Q540 26 540 38 L540 283 Z M68 283 Q68 304 80 313.5 Q92 323 106 323 L372 323 Q384 323 392 318.5 Q400 314 404 307.5 Q408 301 409.5 294.5 Q411 288 411 284 L411 38 Q411 26 406 18.5 Q401 11 394.5 7 Q388 3 381.5 1.5 Q375 0 372 0 L106 0 Q103 0 96.5 1.5 Q90 3 83.5 7 Q77 11 72.5 18.5 Q68 26 68 38 L68 283 Z " />
<glyph glyph-name="quoteleft" unicode="&#x2018;" horiz-adv-x="503" d="M395.008 968.016 Q395.008 933.018 380.009 921.518 Q365.01 910.019 345.011 910.019 L106.026 910.019 Q53.0289 910.019 53.0289 965.016 L53.0289 1135.01 Q53.0289 1221 69.5279 1284 Q86.0269 1346.99 110.025 1391.99 Q134.024 1436.99 161.522 1465.99 Q189.021 1494.98 210.019 1512.98 Q221.019 1522.98 232.018 1528.48 Q243.017 1533.98 260.016 1518.98 L347.011 1432.99 Q357.01 1424.99 358.01 1416.99 Q359.01 1408.99 356.01 1401.49 Q353.011 1393.99 347.011 1388.49 Q341.011 1382.99 337.012 1378.99 Q308.013 1352.99 290.014 1319.99 Q272.016 1287 272.016 1242 Q272.016 1238 274.515 1230 Q277.015 1222 288.015 1222 L349.011 1222 Q369.01 1222 382.009 1209.5 Q395.008 1197 395.008 1171 L395.008 968.016 Z " />
<glyph glyph-name="quoteright" unicode="&#x2019;" horiz-adv-x="536" d="M116 1367 Q116 1402 131 1413.5 Q146 1425 166 1425 L405 1425 Q458 1425 458 1370 L458 1200 Q458 1114 441.5 1051 Q425 988 401 943 Q377 898 349.5 869 Q322 840 301 822 Q290 812 279 806.5 Q268 801 251 816 L164 902 Q154 910 153 918 Q152 926 155 933.5 Q158 941 164 946.5 Q170 952 174 956 Q203 982 221 1015 Q239 1048 239 1093 Q239 1097 236.5 1105 Q234 1113 223 1113 L162 1113 Q142 1113 129 1125.5 Q116 1138 116 1164 L116 1367 Z " />
<glyph glyph-name="quotedblleft" unicode="&#x201c;" horiz-adv-x="822" d="M403.008 967.016 Q403.008 932.018 388.009 920.518 Q373.01 909.019 353.011 909.019 L114.026 909.019 Q61.0289 909.019 61.0289 964.016 L61.0289 1134.01 Q61.0289 1220 77.5279 1283 Q94.0269 1345.99 118.025 1390.99 Q142.024 1435.99 169.522 1464.99 Q197.021 1493.98 218.019 1511.98 Q229.019 1521.98 240.018 1527.48 Q251.017 1532.98 268.016 1517.98 L355.011 1431.99 Q365.01 1423.99 366.01 1415.99 Q367.01 1407.99 364.01 1400.49 Q361.011 1392.99 355.011 1387.49 Q349.011 1381.99 345.012 1377.99 Q316.013 1351.99 298.014 1318.99 Q280.016 1286 280.016 1241 Q280.016 1237 282.515 1229 Q285.015 1221 296.015 1221 L357.011 1221 Q377.01 1221 390.009 1208.5 Q403.008 1196 403.008 1170 L403.008 967.016 Z M781.008 966.016 Q781.008 931.018 766.009 919.518 Q751.01 908.019 731.011 908.019 L492.026 908.019 Q439.029 908.019 439.029 963.016 L439.029 1133.01 Q439.029 1219 455.528 1282 Q472.027 1344.99 496.025 1389.99 Q520.024 1434.99 547.522 1463.99 Q575.021 1492.98 596.019 1510.98 Q607.019 1520.98 618.018 1526.48 Q629.017 1531.98 646.016 1516.98 L733.011 1430.99 Q743.01 1422.99 744.01 1414.99 Q745.01 1406.99 742.01 1399.49 Q739.011 1391.99 733.011 1386.49 Q727.011 1380.99 723.012 1376.99 Q694.013 1350.99 676.014 1317.99 Q658.016 1285 658.016 1240 Q658.016 1236 660.515 1228 Q663.015 1220 674.015 1220 L735.011 1220 Q755.01 1220 768.009 1207.5 Q781.008 1195 781.008 1169 L781.008 966.016 Z " />
<glyph glyph-name="quotedblright" unicode="&#x201d;" horiz-adv-x="895" d="M95 1368 Q95 1403 110 1414.5 Q125 1426 145 1426 L384 1426 Q437 1426 437 1371 L437 1201 Q437 1115 420.5 1052 Q404 989 380 944 Q356 899 328.5 870 Q301 841 280 823 Q269 813 258 807.5 Q247 802 230 817 L143 903 Q133 911 132 919 Q131 927 134 934.5 Q137 942 143 947.5 Q149 953 153 957 Q182 983 200 1016 Q218 1049 218 1094 Q218 1098 215.5 1106 Q213 1114 202 1114 L141 1114 Q121 1114 108 1126.5 Q95 1139 95 1165 L95 1368 Z M473 1367 Q473 1402 488 1413.5 Q503 1425 523 1425 L762 1425 Q815 1425 815 1370 L815 1200 Q815 1114 798.5 1051 Q782 988 758 943 Q734 898 706.5 869 Q679 840 658 822 Q647 812 636 806.5 Q625 801 608 816 L521 902 Q511 910 510 918 Q509 926 512 933.5 Q515 941 521 946.5 Q527 952 531 956 Q560 982 578 1015 Q596 1048 596 1093 Q596 1097 593.5 1105 Q591 1113 580 1113 L519 1113 Q499 1113 486 1125.5 Q473 1138 473 1164 L473 1367 Z " />
<glyph glyph-name="sterling" unicode="&#xa3;" horiz-adv-x="1077" d="M499 820 L774 820 Q788 820 795.5 812 Q803 804 803 790 L803 584 Q803 570 794 562 Q785 554 772 554 L499 554 L499 340 L997 340 Q1039 340 1039 298 L1039 42 Q1039 0 997 0 L170 0 Q129 0 129 42 L129 961 Q129 1071 163.5 1160.5 Q198 1250 262 1313 Q326 1376 416 1410 Q506 1444 617 1444 Q671 1444 715 1439.5 Q759 1435 800 1424 Q841 1413 881.5 1394 Q922 1375 970 1346 Q976 1342 986.5 1334 Q997 1326 1005.5 1316 Q1014 1306 1017 1294.5 Q1020 1283 1012 1271 L896 1097 Q884 1079 870.5 1072.5 Q857 1066 844.5 1066.5 Q832 1067 819.5 1073 Q807 1079 797 1085 Q764 1103 727.5 1110.5 Q691 1118 653 1118 Q614 1118 585.5 1103.5 Q557 1089 537.5 1066 Q518 1043 508.5 1015 Q499 987 499 961 L499 820 Z " />
<glyph glyph-name="cent" unicode="&#xa2;" horiz-adv-x="1175" d="M540 -204 Q526 -204 517 -195.5 Q508 -187 508 -173 L508 9 Q414 39 335 95.5 Q256 152 198.5 229.5 Q141 307 109 403.5 Q77 500 77 611 Q77 716 109 810.5 Q141 905 198.5 983 Q256 1061 335 1119 Q414 1177 508 1208 L508 1395 Q508 1409 516 1416.5 Q524 1424 538 1424 L849 1424 Q863 1424 871 1415 Q879 1406 879 1393 L879 1216 Q942 1199 994.5 1169 Q1047 1139 1101 1099 Q1113 1089 1116.5 1078.5 Q1120 1068 1112 1055 L975 843 Q967 832 953 831.5 Q939 831 928 839 Q896 859 867 873.5 Q838 888 811 897.5 Q784 907 757 911.5 Q730 916 702 916 Q647 916 597 893.5 Q547 871 509 830.5 Q471 790 448.5 734 Q426 678 426 610 Q426 542 447.5 486.5 Q469 431 506 391 Q543 351 593.5 329.5 Q644 308 703 308 Q737 308 768 316 Q799 324 827 336.5 Q855 349 878.5 364 Q902 379 920 392 Q930 400 946 400.5 Q962 401 971 388 L1108 187 Q1122 167 1120 154 Q1118 141 1101 126 Q1060 91 1002.5 59 Q945 27 879 6 L879 -175 Q879 -183 872 -193.5 Q865 -204 849 -204 L540 -204 Z " />
<glyph glyph-name="dagger" unicode="&#x2020;" horiz-adv-x="820" d="M40 629 Q40 643 48.5 652 Q57 661 71 661 L278 661 L278 1383 Q278 1426 320 1426 L499 1426 Q541 1426 541 1383 L541 661 L746 661 Q760 661 767.5 653 Q775 645 775 631 L775 433 Q775 419 766 411 Q757 403 744 403 L541 403 L541 -326 Q541 -368 499 -368 L320 -368 Q278 -368 278 -326 L278 403 L69 403 Q61 403 50.5 410 Q40 417 40 433 L40 629 Z " />
<glyph glyph-name="daggerdbl" unicode="&#x2021;" horiz-adv-x="849" d="M54 896 Q54 910 62.5 919 Q71 928 85 928 L292 928 L292 1383 Q292 1426 334 1426 L513 1426 Q555 1426 555 1383 L555 928 L760 928 Q774 928 781.5 920 Q789 912 789 898 L789 700 Q789 686 780 678 Q771 670 758 670 L555 670 L555 459 L760 459 Q774 459 781.5 451 Q789 443 789 429 L789 231 Q789 217 780 209 Q771 201 758 201 L555 201 L555 -326 Q555 -368 513 -368 L334 -368 Q292 -368 292 -326 L292 201 L83 201 Q75 201 64.5 208 Q54 215 54 231 L54 427 Q54 441 62.5 450 Q71 459 85 459 L292 459 L292 670 L83 670 Q75 670 64.5 677 Q54 684 54 700 L54 896 Z " />
<glyph glyph-name="florin" unicode="&#x192;" horiz-adv-x="817" d="M73 761 Q57 761 46.5 770.5 Q36 780 36 799 L36 1052 Q36 1071 47 1080.5 Q58 1090 73 1090 L208 1090 L208 1216 Q208 1301 249 1377.5 Q290 1454 358.5 1511 Q427 1568 515 1601.5 Q603 1635 698 1635 Q736 1635 747.5 1623.5 Q759 1612 759 1579 L759 1349 Q759 1317 744 1306.5 Q729 1296 701 1296 Q670 1296 645.5 1292 Q621 1288 604 1274.5 Q587 1261 578 1235.5 Q569 1210 569 1167 L569 1090 L754 1090 Q791 1090 791 1052 L791 799 Q791 761 754 761 L569 761 L569 -2 Q569 -80 535 -153.5 Q501 -227 441 -284 Q381 -341 298.5 -375.5 Q216 -410 119 -410 Q88 -410 70.5 -406 Q53 -402 44 -396 Q35 -390 33 -383 Q31 -376 31 -369 L31 -185 Q31 -178 32 -169 Q33 -160 38 -152 Q43 -144 53.5 -139 Q64 -134 84 -134 Q120 -134 144 -121 Q168 -108 182 -86 Q196 -64 202 -34.5 Q208 -5 208 28 L208 761 L73 761 Z " />
<glyph glyph-name="trademark" unicode="&#x2122;" horiz-adv-x="1313" d="M528 1428 Q549 1428 549 1411 L549 1310 Q549 1299 542.5 1293.5 Q536 1288 528 1288 L403 1288 L403 865 Q403 847 395.5 844 Q388 841 378 841 L274 841 Q269 841 261 845.5 Q253 850 253 862 L253 1288 L129 1288 Q115 1288 111.5 1294.5 Q108 1301 108 1309 L108 1401 Q108 1409 111 1418.5 Q114 1428 129 1428 L528 1428 Z M1170 859 Q1170 843 1151 843 L1051 843 Q1040 843 1036 847.5 Q1032 852 1031 859 L1007 1162 L921 883 Q916 868 904 868 L843 868 Q830 868 826 883 L739 1162 L716 859 Q716 849 710.5 846 Q705 843 697 843 L602 843 Q575 843 577 861 L604 1411 Q604 1418 608.5 1423 Q613 1428 621 1428 L762 1428 Q774 1428 779.5 1425.5 Q785 1423 788 1415 L873 1153 L957 1410 Q958 1415 965.5 1422 Q973 1429 999 1429 L1118 1429 Q1126 1429 1133.5 1425 Q1141 1421 1142 1411 L1170 859 Z " />
<glyph glyph-name="yen" unicode="&#xa5;" horiz-adv-x="1342" d="M249 703 Q249 721 260 730.5 Q271 740 282 740 L399 740 L33 1383 Q22 1403 30.5 1414.5 Q39 1426 60 1426 L393 1426 Q414 1426 426.5 1415.5 Q439 1405 450 1383 L675 911 L900 1383 Q911 1405 923.5 1415.5 Q936 1426 957 1426 L1290 1426 Q1311 1426 1319.5 1414.5 Q1328 1403 1317 1383 L950 740 L1080 740 Q1113 740 1113 706 L1113 582 Q1113 565 1102.5 557 Q1092 549 1076 549 L861 549 L861 467 L1080 467 Q1113 467 1113 433 L1113 309 Q1113 292 1102.5 284 Q1092 276 1076 276 L861 276 L861 42 Q861 0 819 0 L532 0 Q490 0 490 42 L490 276 L282 276 Q271 276 260 284 Q249 292 249 309 L249 430 Q249 448 260 457.5 Q271 467 282 467 L490 467 L490 549 L282 549 Q271 549 260 557 Q249 565 249 582 L249 703 Z " />
<glyph glyph-name="emdash" unicode="&#x2014;" horiz-adv-x="1605" d="M159 664 Q159 688 173.5 700.5 Q188 713 203 713 L1405 713 Q1448 713 1448 668 L1448 504 Q1448 482 1434 471 Q1420 460 1399 460 L203 460 Q189 460 174 471 Q159 482 159 504 L159 664 Z " />
<glyph glyph-name="guilsinglright" unicode="&#x203a;" horiz-adv-x="847" d="M788.004 583 Q799.003 594 802.003 608 Q805.003 622 788.004 639 L286.035 1140 Q282.035 1144 276.035 1147.5 Q270.036 1151 263.536 1152 Q257.036 1153 249.537 1151.5 Q242.037 1150 235.038 1143 L89.0467 1000 Q78.0474 989 76.0475 971.5 Q74.0476 954 87.0468 941 L422.026 611 L79.0473 275 Q66.0481 262 68.048 244.5 Q70.0479 227 81.0472 216 L227.038 73 Q234.038 66 241.537 64.5 Q249.037 63 255.537 64 Q262.036 65 268.036 68.5 Q274.035 72 278.035 76 L788.004 583 L788.004 583 Z " />
<glyph glyph-name="N" unicode="N" horiz-adv-x="1538" d="M514 873 L514 42 Q514 0 467 0 L199 0 Q157 0 157 42 L157 1383 Q157 1400 167.5 1413 Q178 1426 199 1426 L510 1426 Q531 1426 548 1414.5 Q565 1403 578 1383 L1059 605 L1059 1383 Q1059 1400 1069.5 1413 Q1080 1426 1102 1426 L1369 1426 Q1384 1426 1400 1414 Q1416 1402 1416 1383 L1416 42 Q1416 0 1369 0 L1088 0 Q1044 0 1019 42 L514 873 Z " />
<glyph glyph-name="Zcaron" unicode="&#x17d;" horiz-adv-x="1375" d="M1268 1426 Q1307 1426 1307 1388 L1307 1176 Q1306 1166 1302 1159.5 Q1298 1153 1295 1149 L607 328 L1274 328 Q1311 328 1311 291 L1311 36 Q1311 -1 1274 -1 L145 -1 Q107 -1 107 36 L107 247 Q107 263 111.5 272.5 Q116 282 124 290 L804 1094 L142 1094 Q104 1094 104 1132 L104 1388 Q104 1426 142 1426 L1268 1426 Z M760 1594 Q752 1586 746.5 1583 Q741 1580 730 1580 Q719 1580 711.5 1584.5 Q704 1589 699 1594 L467 1825 Q438 1854 467 1885 L547 1962 Q562 1976 577.5 1975.5 Q593 1975 606 1962 L727 1837 L851 1960 Q864 1973 879.5 1973.5 Q895 1974 910 1960 L988 1885 Q1017 1854 988 1825 L760 1594 Z " />
<glyph glyph-name="exclamdown" unicode="&#xa1;" horiz-adv-x="586" d="M129 -314.906 Q129 -356.904 172 -356.904 L429 -356.904 Q471 -356.904 471 -314.906 L471 678.033 Q471 720.031 429 720.031 L172 720.031 Q129 720.031 129 678.033 L129 -314.906 Z M129 927.018 Q129 901.02 143.5 890.02 Q158 879.021 173 879.021 L425 879.021 Q439 879.021 448 884.521 Q457 890.02 462 897.02 Q467 904.019 469 912.019 Q471 920.018 471 924.018 L471 1178 Q471 1192 465.5 1200.5 Q460 1209 452.5 1214 Q445 1219 437 1220.5 Q429 1222 425 1222 L173 1222 Q169 1222 162 1220 Q155 1218 147.5 1213.5 Q140 1209 134.5 1200.5 Q129 1192 129 1178 L129 927.018 Z " />
<glyph glyph-name="Ecircumflex" unicode="&#xca;" horiz-adv-x="1296" d="M154 1383 Q154 1426 196 1426 L1151 1426 Q1193 1426 1193 1383 L1193 1137 Q1193 1095 1151 1095 L525 1095 L525 858 L1000 858 Q1022 858 1034.5 847.5 Q1047 837 1047 814 L1047 616 Q1047 574 1000 574 L525 574 L525 329 L1169 329 Q1212 329 1212 287 L1212 42 Q1212 0 1169 0 L196 0 Q154 0 154 42 L154 1383 Z M970 1748 Q984 1734 985 1718.5 Q986 1703 970 1688 L892 1613 Q877 1599 861.5 1599.5 Q846 1600 833 1613 L709 1736 L588 1611 Q575 1598 559.5 1597.5 Q544 1597 529 1611 L449 1688 Q433 1703 434 1718.5 Q435 1734 449 1748 L681 1979 Q686 1984 693.5 1988.5 Q701 1993 712 1993 Q723 1993 728.5 1990 Q734 1987 742 1979 L970 1748 Z " />
<glyph glyph-name="Edieresis" unicode="&#xcb;" horiz-adv-x="1296" d="M154 1383 Q154 1426 196 1426 L1151 1426 Q1193 1426 1193 1383 L1193 1137 Q1193 1095 1151 1095 L525 1095 L525 858 L1000 858 Q1022 858 1034.5 847.5 Q1047 837 1047 814 L1047 616 Q1047 574 1000 574 L525 574 L525 329 L1169 329 Q1212 329 1212 287 L1212 42 Q1212 0 1169 0 L196 0 Q154 0 154 42 L154 1383 Z M350 1797 Q350 1821 362.5 1838 Q375 1855 407 1855 L567 1855 Q596 1855 607.5 1839 Q619 1823 619 1797 L619 1636 Q619 1606 605.5 1595.5 Q592 1585 567 1585 L407 1585 Q382 1585 366 1595.5 Q350 1606 350 1635 L350 1797 Z M768 1797 Q768 1821 780.5 1838 Q793 1855 825 1855 L985 1855 Q1014 1855 1025.5 1839 Q1037 1823 1037 1797 L1037 1636 Q1037 1606 1023.5 1595.5 Q1010 1585 985 1585 L825 1585 Q800 1585 784 1595.5 Q768 1606 768 1635 L768 1797 Z " />
<glyph glyph-name="Igrave" unicode="&#xcc;" horiz-adv-x="684" d="M157 1383 Q157 1426 199 1426 L486 1426 Q528 1426 528 1383 L528 42 Q528 0 486 0 L199 0 Q157 0 157 42 L157 1383 Z M96 1833 Q88 1852 96.5 1868.5 Q105 1885 123 1885 L341 1885 Q366 1885 379 1875.5 Q392 1866 400 1842 L473 1629 Q481 1602 468.5 1591.5 Q456 1581 442 1581 L249 1581 Q226 1581 214.5 1588 Q203 1595 190 1624 L96 1833 Z " />
<glyph glyph-name="Iacute" unicode="&#xcd;" horiz-adv-x="684" d="M157 1383 Q157 1426 199 1426 L486 1426 Q528 1426 528 1383 L528 42 Q528 0 486 0 L199 0 Q157 0 157 42 L157 1383 Z M495 1629 Q482 1600 470.5 1593 Q459 1586 436 1586 L243 1586 Q229 1586 216.5 1596.5 Q204 1607 212 1634 L285 1847 Q293 1871 306 1880.5 Q319 1890 344 1890 L562 1890 Q580 1890 588.5 1873.5 Q597 1857 589 1838 L495 1629 Z " />
<glyph glyph-name="Icircumflex" unicode="&#xce;" horiz-adv-x="684" d="M157 1383 Q157 1426 199 1426 L486 1426 Q528 1426 528 1383 L528 42 Q528 0 486 0 L199 0 Q157 0 157 42 L157 1383 Z M609 1752 Q623 1738 624 1722.5 Q625 1707 609 1692 L531 1617 Q516 1603 500.5 1603.5 Q485 1604 472 1617 L348 1740 L227 1615 Q214 1602 198.5 1601.5 Q183 1601 168 1615 L88 1692 Q72 1707 73 1722.5 Q74 1738 88 1752 L320 1983 Q325 1988 332.5 1992.5 Q340 1997 351 1997 Q362 1997 367.5 1994 Q373 1991 381 1983 L609 1752 Z " />
<glyph glyph-name="Idieresis" unicode="&#xcf;" horiz-adv-x="684" d="M157 1383 Q157 1426 199 1426 L486 1426 Q528 1426 528 1383 L528 42 Q528 0 486 0 L199 0 Q157 0 157 42 L157 1383 Z M-3 1809 Q-3 1833 9.5 1850 Q22 1867 54 1867 L214 1867 Q243 1867 254.5 1851 Q266 1835 266 1809 L266 1648 Q266 1618 252.5 1607.5 Q239 1597 214 1597 L54 1597 Q29 1597 13 1607.5 Q-3 1618 -3 1647 L-3 1809 Z M415 1809 Q415 1833 427.5 1850 Q440 1867 472 1867 L632 1867 Q661 1867 672.5 1851 Q684 1835 684 1809 L684 1648 Q684 1618 670.5 1607.5 Q657 1597 632 1597 L472 1597 Q447 1597 431 1607.5 Q415 1618 415 1647 L415 1809 Z " />
<glyph glyph-name="Ntilde" unicode="&#xd1;" horiz-adv-x="1538" d="M514 873 L514 42 Q514 0 467 0 L199 0 Q157 0 157 42 L157 1383 Q157 1400 167.5 1413 Q178 1426 199 1426 L510 1426 Q531 1426 548 1414.5 Q565 1403 578 1383 L1059 605 L1059 1383 Q1059 1400 1069.5 1413 Q1080 1426 1102 1426 L1369 1426 Q1384 1426 1400 1414 Q1416 1402 1416 1383 L1416 42 Q1416 0 1369 0 L1088 0 Q1044 0 1019 42 L514 873 Z M581 1606 Q573 1596 563.5 1596 Q554 1596 545 1601 Q536 1606 527.5 1613.5 Q519 1621 513 1627 L452 1686 Q438 1699 432 1707 Q426 1715 427 1722 Q428 1729 434.5 1738 Q441 1747 452 1763 Q491 1821 547 1853.5 Q603 1886 666 1886 Q702 1885 737.5 1869.5 Q773 1854 805 1836 Q837 1818 864 1803.5 Q891 1789 911 1789 Q937 1789 951 1802 Q965 1815 985 1839 Q1003 1862 1021.5 1861 Q1040 1860 1055 1844 L1142 1756 Q1155 1743 1154 1732 Q1153 1721 1148 1715 Q1105 1649 1045 1612 Q985 1575 913 1575 Q875 1575 841 1590 Q807 1605 776.5 1623 Q746 1641 719 1656 Q692 1671 668 1671 Q650 1671 637 1664.5 Q624 1658 614.5 1648 Q605 1638 597 1627 Q589 1616 581 1606 Z " />
<glyph glyph-name="Ucircumflex" unicode="&#xdb;" horiz-adv-x="1488" d="M522 569 Q522 498 541.5 448.5 Q561 399 593.5 368 Q626 337 668.5 322.5 Q711 308 757 308 Q805 308 848 325 Q891 342 923 375 Q955 408 974 456.5 Q993 505 993 569 L993 1383 Q993 1400 1005 1413 Q1017 1426 1037 1426 L1317 1426 Q1340 1426 1352 1413 Q1364 1400 1364 1383 L1364 574 Q1364 406 1314.5 292 Q1265 178 1181.5 108.5 Q1098 39 988 8.5 Q878 -22 757 -22 Q636 -22 526 9 Q416 40 332.5 110.5 Q249 181 199.5 295 Q150 409 150 574 L150 1383 Q150 1400 160.5 1413 Q171 1426 188 1426 L481 1426 Q507 1426 514.5 1413.5 Q522 1401 522 1383 L522 569 Z M1024 1709 Q1038 1695 1039 1679.5 Q1040 1664 1024 1649 L946 1574 Q931 1560 915.5 1560.5 Q900 1561 887 1574 L763 1697 L642 1572 Q629 1559 613.5 1558.5 Q598 1558 583 1572 L503 1649 Q487 1664 488 1679.5 Q489 1695 503 1709 L735 1940 Q740 1945 747.5 1949.5 Q755 1954 766 1954 Q777 1954 782.5 1951 Q788 1948 796 1940 L1024 1709 Z " />
<glyph glyph-name="Udieresis" unicode="&#xdc;" horiz-adv-x="1488" d="M522 569 Q522 498 541.5 448.5 Q561 399 593.5 368 Q626 337 668.5 322.5 Q711 308 757 308 Q805 308 848 325 Q891 342 923 375 Q955 408 974 456.5 Q993 505 993 569 L993 1383 Q993 1400 1005 1413 Q1017 1426 1037 1426 L1317 1426 Q1340 1426 1352 1413 Q1364 1400 1364 1383 L1364 574 Q1364 406 1314.5 292 Q1265 178 1181.5 108.5 Q1098 39 988 8.5 Q878 -22 757 -22 Q636 -22 526 9 Q416 40 332.5 110.5 Q249 181 199.5 295 Q150 409 150 574 L150 1383 Q150 1400 160.5 1413 Q171 1426 188 1426 L481 1426 Q507 1426 514.5 1413.5 Q522 1401 522 1383 L522 569 Z M411 1792 Q411 1816 423.5 1833 Q436 1850 468 1850 L628 1850 Q657 1850 668.5 1834 Q680 1818 680 1792 L680 1631 Q680 1601 666.5 1590.5 Q653 1580 628 1580 L468 1580 Q443 1580 427 1590.5 Q411 1601 411 1630 L411 1792 Z M829 1792 Q829 1816 841.5 1833 Q854 1850 886 1850 L1046 1850 Q1075 1850 1086.5 1834 Q1098 1818 1098 1792 L1098 1631 Q1098 1601 1084.5 1590.5 Q1071 1580 1046 1580 L886 1580 Q861 1580 845 1590.5 Q829 1601 829 1630 L829 1792 Z " />
<glyph glyph-name="icircumflex" unicode="&#xee;" horiz-adv-x="597" d="M114 1183 Q114 1204 127.5 1214.5 Q141 1225 156 1225 L441 1225 Q459 1225 471 1213.5 Q483 1202 483 1183 L483 42 Q483 0 441 0 L156 0 Q114 0 114 42 L114 1183 Z M568 1528 Q582 1514 583 1498.5 Q584 1483 568 1468 L490 1393 Q475 1379 459.5 1379.5 Q444 1380 431 1393 L307 1516 L186 1391 Q173 1378 157.5 1377.5 Q142 1377 127 1391 L47 1468 Q31 1483 32 1498.5 Q33 1514 47 1528 L279 1759 Q284 1764 291.5 1768.5 Q299 1773 310 1773 Q321 1773 326.5 1770 Q332 1767 340 1759 L568 1528 Z " />
<glyph glyph-name="idieresis" unicode="&#xef;" horiz-adv-x="597" d="M114 1183 Q114 1204 127.5 1214.5 Q141 1225 156 1225 L441 1225 Q459 1225 471 1213.5 Q483 1202 483 1183 L483 42 Q483 0 441 0 L156 0 Q114 0 114 42 L114 1183 Z M-40 1618 Q-40 1642 -27.5 1659 Q-15 1676 17 1676 L177 1676 Q206 1676 217.5 1660 Q229 1644 229 1618 L229 1457 Q229 1427 215.5 1416.5 Q202 1406 177 1406 L17 1406 Q-8 1406 -24 1416.5 Q-40 1427 -40 1456 L-40 1618 Z M378 1618 Q378 1642 390.5 1659 Q403 1676 435 1676 L595 1676 Q624 1676 635.5 1660 Q647 1644 647 1618 L647 1457 Q647 1427 633.5 1416.5 Q620 1406 595 1406 L435 1406 Q410 1406 394 1416.5 Q378 1427 378 1456 L378 1618 Z " />
<glyph glyph-name="mu" unicode="&#xb5;" horiz-adv-x="1288" d="M670 -13 Q634 -13 604.5 -3 Q575 7 550 23 Q525 39 504.5 57 Q484 75 467 92 L467 -329 Q467 -345 459 -354.5 Q451 -364 438 -369.5 Q425 -375 409 -376.5 Q393 -378 377 -378 L178 -378 Q152 -378 139.5 -364 Q127 -350 127 -328 L127 892 Q127 915 139.5 928 Q152 941 181 941 L418 941 Q438 941 452.5 932 Q467 923 467 893 L467 478 Q467 455 472.5 424.5 Q478 394 496 366 Q514 338 546.5 318.5 Q579 299 633 299 Q687 299 718 318.5 Q749 338 764.5 366.5 Q780 395 784 427 Q788 459 788 484 L788 894 Q788 941 837 941 L1078 941 Q1097 941 1111.5 927 Q1126 913 1126 892 L1126 482 Q1126 374 1094.5 283.5 Q1063 193 1004 127 Q945 61 860.5 24 Q776 -13 670 -13 Z " />
<glyph glyph-name="periodcentered" unicode="&#xb7;" horiz-adv-x="572" d="M115 719 Q115 740 127 749.5 Q139 759 153 759 L389 759 Q401 759 409 754.5 Q417 750 421 743.5 Q425 737 426.5 730.5 Q428 724 428 720 L428 484 Q428 472 423 464.5 Q418 457 411.5 453 Q405 449 398.5 447.5 Q392 446 389 446 L153 446 Q150 446 143.5 447.5 Q137 449 130.5 453 Q124 457 119.5 464.5 Q115 472 115 484 L115 719 Z " />
<glyph glyph-name="Ccedilla" unicode="&#xc7;" horiz-adv-x="1352" d="M1036 402 Q1056 416 1073.5 418.5 Q1091 421 1104 402 L1261 171 Q1277 151 1273.5 137.5 Q1270 124 1248 109 Q1171 55 1068.5 17 Q966 -21 835 -21 Q733 -21 639 5.5 Q545 32 463 80 Q381 128 314 195 Q247 262 199 344 Q151 426 124.5 520 Q98 614 98 716 Q98 818 124.5 911.5 Q151 1005 199 1086.5 Q247 1168 314 1234.5 Q381 1301 463 1348.5 Q545 1396 639 1422 Q733 1448 835 1448 Q900 1448 958.5 1437.5 Q1017 1427 1069 1409 Q1121 1391 1167 1366.5 Q1213 1342 1252 1314 Q1267 1303 1269.5 1288.5 Q1272 1274 1265 1263 L1098 1024 Q1087 1009 1070.5 1010 Q1054 1011 1039 1023 Q991 1061 943 1078 Q895 1095 835 1095 Q755 1095 687 1065.5 Q619 1036 569.5 985 Q520 934 492 865 Q464 796 464 716 Q464 636 492 566 Q520 496 569.5 444.5 Q619 393 687 363 Q755 333 835 333 Q896 333 947 354.5 Q998 376 1036 402 Z M833 -245 Q833 -224 819 -206.5 Q805 -189 784 -173.5 Q763 -158 738 -143 Q713 -128 692 -111.5 Q671 -95 657 -76.5 Q643 -58 643 -34 Q643 -22 647 -9.5 Q651 3 657 13.5 Q663 24 670.5 31 Q678 38 685 38 L876 39 Q884 39 893 37.5 Q902 36 909 33.5 Q916 31 918 27 Q920 23 915 19 Q906 11 900 3.5 Q894 -4 894 -15 Q894 -32 908.5 -45 Q923 -58 945 -71.5 Q967 -85 992 -99.5 Q1017 -114 1039 -133.5 Q1061 -153 1075.5 -179 Q1090 -205 1090 -240 Q1090 -289 1058 -335.5 Q1026 -382 978 -420 Q930 -458 875 -485.5 Q820 -513 774 -523 Q763 -525 749.5 -524 Q736 -523 729 -509 L665 -382 Q658 -368 663 -359 Q668 -350 678 -347 Q756 -321 794.5 -298 Q833 -275 833 -245 Z " />
<glyph glyph-name="degree" unicode="&#xb0;" horiz-adv-x="624" d="M106 1170 Q106 1213 122 1251 Q138 1289 166 1317 Q194 1345 231.5 1361 Q269 1377 311 1377 Q354 1377 391.5 1361 Q429 1345 457 1317 Q485 1289 501 1251 Q517 1213 517 1170 Q517 1128 501 1090.5 Q485 1053 457 1025 Q429 997 391.5 981 Q354 965 311 965 Q269 965 231.5 981 Q194 997 166 1025 Q138 1053 122 1090.5 Q106 1128 106 1170 Z M227 1170 Q227 1152 233.5 1137 Q240 1122 251 1110.5 Q262 1099 277.5 1092.5 Q293 1086 310 1086 Q346 1086 370 1110.5 Q394 1135 394 1170 Q394 1205 370 1229.5 Q346 1254 310 1254 Q293 1254 277.5 1247.5 Q262 1241 251 1229.5 Q240 1218 233.5 1203 Q227 1188 227 1170 Z " />
<glyph glyph-name="Ydieresis" unicode="&#x178;" horiz-adv-x="1354" d="M487 581 L34 1383 Q23 1403 31.5 1414.5 Q40 1426 61 1426 L390 1426 Q411 1426 423.5 1415.5 Q436 1405 447 1383 L673 902 L897 1383 Q908 1405 920.5 1415.5 Q933 1426 954 1426 L1287 1426 Q1308 1426 1316.5 1414.5 Q1325 1403 1314 1383 L858 583 L858 42 Q858 0 816 0 L529 0 Q487 0 487 42 L487 581 Z M333 1809 Q333 1833 345.5 1850 Q358 1867 390 1867 L550 1867 Q579 1867 590.5 1851 Q602 1835 602 1809 L602 1648 Q602 1618 588.5 1607.5 Q575 1597 550 1597 L390 1597 Q365 1597 349 1607.5 Q333 1618 333 1647 L333 1809 Z M751 1809 Q751 1833 763.5 1850 Q776 1867 808 1867 L968 1867 Q997 1867 1008.5 1851 Q1020 1835 1020 1809 L1020 1648 Q1020 1618 1006.5 1607.5 Q993 1597 968 1597 L808 1597 Q783 1597 767 1607.5 Q751 1618 751 1647 L751 1809 Z " />
<glyph glyph-name="Ccircumflex" unicode="&#x108;" horiz-adv-x="1352" d="M1036 402 Q1056 416 1073.5 418.5 Q1091 421 1104 402 L1261 171 Q1277 151 1273.5 137.5 Q1270 124 1248 109 Q1171 55 1068.5 17 Q966 -21 835 -21 Q733 -21 639 5.5 Q545 32 463 80 Q381 128 314 195 Q247 262 199 344 Q151 426 124.5 520 Q98 614 98 716 Q98 818 124.5 911.5 Q151 1005 199 1086.5 Q247 1168 314 1234.5 Q381 1301 463 1348.5 Q545 1396 639 1422 Q733 1448 835 1448 Q900 1448 958.5 1437.5 Q1017 1427 1069 1409 Q1121 1391 1167 1366.5 Q1213 1342 1252 1314 Q1267 1303 1269.5 1288.5 Q1272 1274 1265 1263 L1098 1024 Q1087 1009 1070.5 1010 Q1054 1011 1039 1023 Q991 1061 943 1078 Q895 1095 835 1095 Q755 1095 687 1065.5 Q619 1036 569.5 985 Q520 934 492 865 Q464 796 464 716 Q464 636 492 566 Q520 496 569.5 444.5 Q619 393 687 363 Q755 333 835 333 Q896 333 947 354.5 Q998 376 1036 402 Z M1087 1730 Q1101 1716 1102 1700.5 Q1103 1685 1087 1670 L1009 1595 Q994 1581 978.5 1581.5 Q963 1582 950 1595 L826 1718 L705 1593 Q692 1580 676.5 1579.5 Q661 1579 646 1593 L566 1670 Q550 1685 551 1700.5 Q552 1716 566 1730 L798 1961 Q803 1966 810.5 1970.5 Q818 1975 829 1975 Q840 1975 845.5 1972 Q851 1969 859 1961 L1087 1730 Z " />
<glyph glyph-name="Cdotaccent" unicode="&#x10a;" horiz-adv-x="1352" d="M1036 402 Q1056 416 1073.5 418.5 Q1091 421 1104 402 L1261 171 Q1277 151 1273.5 137.5 Q1270 124 1248 109 Q1171 55 1068.5 17 Q966 -21 835 -21 Q733 -21 639 5.5 Q545 32 463 80 Q381 128 314 195 Q247 262 199 344 Q151 426 124.5 520 Q98 614 98 716 Q98 818 124.5 911.5 Q151 1005 199 1086.5 Q247 1168 314 1234.5 Q381 1301 463 1348.5 Q545 1396 639 1422 Q733 1448 835 1448 Q900 1448 958.5 1437.5 Q1017 1427 1069 1409 Q1121 1391 1167 1366.5 Q1213 1342 1252 1314 Q1267 1303 1269.5 1288.5 Q1272 1274 1265 1263 L1098 1024 Q1087 1009 1070.5 1010 Q1054 1011 1039 1023 Q991 1061 943 1078 Q895 1095 835 1095 Q755 1095 687 1065.5 Q619 1036 569.5 985 Q520 934 492 865 Q464 796 464 716 Q464 636 492 566 Q520 496 569.5 444.5 Q619 393 687 363 Q755 333 835 333 Q896 333 947 354.5 Q998 376 1036 402 Z M698 1809 Q698 1833 710.5 1850 Q723 1867 755 1867 L915 1867 Q944 1867 955.5 1851 Q967 1835 967 1809 L967 1648 Q967 1618 953.5 1607.5 Q940 1597 915 1597 L755 1597 Q730 1597 714 1607.5 Q698 1618 698 1647 L698 1809 Z " />
<glyph glyph-name="Edotaccent" unicode="&#x116;" horiz-adv-x="1296" d="M154 1383 Q154 1426 196 1426 L1151 1426 Q1193 1426 1193 1383 L1193 1137 Q1193 1095 1151 1095 L525 1095 L525 858 L1000 858 Q1022 858 1034.5 847.5 Q1047 837 1047 814 L1047 616 Q1047 574 1000 574 L525 574 L525 329 L1169 329 Q1212 329 1212 287 L1212 42 Q1212 0 1169 0 L196 0 Q154 0 154 42 L154 1383 Z M561 1798 Q561 1822 573.5 1839 Q586 1856 618 1856 L778 1856 Q807 1856 818.5 1840 Q830 1824 830 1798 L830 1637 Q830 1607 816.5 1596.5 Q803 1586 778 1586 L618 1586 Q593 1586 577 1596.5 Q561 1607 561 1636 L561 1798 Z " />
<glyph glyph-name="Eogonek" unicode="&#x118;" horiz-adv-x="1296" d="M154 1383 Q154 1426 196 1426 L1151 1426 Q1193 1426 1193 1383 L1193 1137 Q1193 1095 1151 1095 L525 1095 L525 858 L1000 858 Q1022 858 1034.5 847.5 Q1047 837 1047 814 L1047 616 Q1047 574 1000 574 L525 574 L525 329 L1169 329 Q1212 329 1212 287 L1212 42 Q1212 0 1169 0 L196 0 Q154 0 154 42 L154 1383 Z M1316 -224 Q1316 -276 1297.5 -323 Q1279 -370 1245.5 -406 Q1212 -442 1165.5 -463 Q1119 -484 1063 -484 Q1011 -484 965 -464.5 Q919 -445 884 -410.5 Q849 -376 828.5 -329.5 Q808 -283 808 -230 Q808 -181 827 -136 Q846 -91 877 -57 L1071 137 Q1096 160 1117 137 Q1137 117 1158 96.5 Q1179 76 1199 55 Q1223 33 1199 9 L1009 -181 Q999 -191 995 -203 Q991 -215 990 -229 Q991 -264 1013 -280.5 Q1035 -297 1062 -298 Q1075 -298 1088 -294 Q1101 -290 1111 -281.5 Q1121 -273 1127 -260 Q1133 -247 1132 -229 Q1132 -209 1142.5 -199.5 Q1153 -190 1166 -190 L1283 -190 Q1294 -190 1305 -199 Q1316 -208 1316 -224 Z " />
<glyph glyph-name="Hcircumflex" unicode="&#x124;" horiz-adv-x="1538" d="M1009 588 L527 588 L527 42 Q527 0 481 0 L199 0 Q157 0 157 42 L157 1383 Q157 1400 167.5 1413 Q178 1426 199 1426 L487 1426 Q499 1426 513 1418.5 Q527 1411 527 1385 L527 927 L1009 927 L1009 1383 Q1009 1400 1019.5 1413 Q1030 1426 1051 1426 L1339 1426 Q1351 1426 1365 1418.5 Q1379 1411 1379 1385 L1379 42 Q1379 0 1333 0 L1051 0 Q1009 0 1009 42 L1009 588 Z M1050 1719 Q1064 1705 1065 1689.5 Q1066 1674 1050 1659 L972 1584 Q957 1570 941.5 1570.5 Q926 1571 913 1584 L789 1707 L668 1582 Q655 1569 639.5 1568.5 Q624 1568 609 1582 L529 1659 Q513 1674 514 1689.5 Q515 1705 529 1719 L761 1950 Q766 1955 773.5 1959.5 Q781 1964 792 1964 Q803 1964 808.5 1961 Q814 1958 822 1950 L1050 1719 Z " />
<glyph glyph-name="Ibreve" unicode="&#x12c;" horiz-adv-x="684" d="M157 1383 Q157 1426 199 1426 L486 1426 Q528 1426 528 1383 L528 42 Q528 0 486 0 L199 0 Q157 0 157 42 L157 1383 Z M354 1576 Q298 1576 249.5 1596.5 Q201 1617 165.5 1650.5 Q130 1684 110 1727.5 Q90 1771 90 1817 Q90 1833 100 1843 Q110 1853 125 1853 L265 1853 Q276 1853 281.5 1846.5 Q287 1840 287 1831 Q287 1810 304 1792 Q321 1774 358 1774 Q390 1774 408 1792.5 Q426 1811 426 1831 Q426 1840 431 1846.5 Q436 1853 446 1853 L586 1853 Q603 1853 613 1843 Q623 1833 623 1817 Q623 1770 602 1726.5 Q581 1683 545 1649.5 Q509 1616 460 1596 Q411 1576 354 1576 Z " />
<glyph glyph-name="Itilde" unicode="&#x128;" horiz-adv-x="684" d="M157 1383 Q157 1426 199 1426 L486 1426 Q528 1426 528 1383 L528 42 Q528 0 486 0 L199 0 Q157 0 157 42 L157 1383 Z M126 1604 Q118 1594 108.5 1594 Q99 1594 90 1599 Q81 1604 72.5 1611.5 Q64 1619 58 1625 L-3 1684 Q-17 1697 -23 1705 Q-29 1713 -28 1720 Q-27 1727 -20.5 1736 Q-14 1745 -3 1761 Q36 1819 92 1851.5 Q148 1884 211 1884 Q247 1883 282.5 1867.5 Q318 1852 350 1834 Q382 1816 409 1801.5 Q436 1787 456 1787 Q482 1787 496 1800 Q510 1813 530 1837 Q548 1860 566.5 1859 Q585 1858 600 1842 L687 1754 Q700 1741 699 1730 Q698 1719 693 1713 Q650 1647 590 1610 Q530 1573 458 1573 Q420 1573 386 1588 Q352 1603 321.5 1621 Q291 1639 264 1654 Q237 1669 213 1669 Q195 1669 182 1662.5 Q169 1656 159.5 1646 Q150 1636 142 1625 Q134 1614 126 1604 Z " />
<glyph glyph-name="IJ" unicode="&#x132;" horiz-adv-x="1371" d="M157 1383 Q157 1426 199 1426 L486 1426 Q528 1426 528 1383 L528 42 Q528 0 486 0 L199 0 Q157 0 157 42 L157 1383 Z M881 1385 Q881 1399 886 1407.5 Q891 1416 897.5 1420 Q904 1424 911 1425 Q918 1426 922 1426 L1200 1426 Q1229 1426 1240.5 1415.5 Q1252 1405 1252 1376 L1252 59 Q1252 10 1243 -33 Q1227 -108 1184.5 -174.5 Q1142 -241 1081 -290.5 Q1020 -340 944 -368.5 Q868 -397 784 -397 Q741 -397 692.5 -386.5 Q644 -376 596.5 -356 Q549 -336 506.5 -305.5 Q464 -275 433 -235 Q428 -229 421.5 -219 Q415 -209 411 -197 Q407 -185 407.5 -173 Q408 -161 418 -152 L584 2 Q600 17 612.5 19.5 Q625 22 635 18 Q645 14 653.5 6 Q662 -2 670 -9 Q692 -26 713.5 -37.5 Q735 -49 765 -49 Q787 -49 808 -40.5 Q829 -32 845 -17.5 Q861 -3 871 16.5 Q881 36 881 59 L881 1385 Z " />
<glyph glyph-name="Jcircumflex" unicode="&#x134;" horiz-adv-x="866" d="M352 1385 Q352 1399 357 1407.5 Q362 1416 368.5 1420 Q375 1424 382 1425 Q389 1426 393 1426 L671 1426 Q700 1426 711.5 1415.5 Q723 1405 723 1376 L723 59 Q723 10 714 -33 Q698 -108 655.5 -174.5 Q613 -241 552 -290.5 Q491 -340 415 -368.5 Q339 -397 255 -397 Q212 -397 163.5 -386.5 Q115 -376 67.5 -356 Q20 -336 -22.5 -305.5 Q-65 -275 -96 -235 Q-101 -229 -107.5 -219 Q-114 -209 -118 -197 Q-122 -185 -121.5 -173 Q-121 -161 -111 -152 L55 2 Q71 17 83.5 19.5 Q96 22 106 18 Q116 14 124.5 6 Q133 -2 141 -9 Q163 -26 184.5 -37.5 Q206 -49 236 -49 Q258 -49 279 -40.5 Q300 -32 316 -17.5 Q332 -3 342 16.5 Q352 36 352 59 L352 1385 Z M789 1740 Q803 1726 804 1710.5 Q805 1695 789 1680 L711 1605 Q696 1591 680.5 1591.5 Q665 1592 652 1605 L528 1728 L407 1603 Q394 1590 378.5 1589.5 Q363 1589 348 1603 L268 1680 Q252 1695 253 1710.5 Q254 1726 268 1740 L500 1971 Q505 1976 512.5 1980.5 Q520 1985 531 1985 Q542 1985 547.5 1982 Q553 1979 561 1971 L789 1740 Z " />
<glyph glyph-name="Scedilla" unicode="&#x15e;" horiz-adv-x="1260" d="M115 225 Q106 235 98.5 245 Q91 255 88 265.5 Q85 276 88.5 287 Q92 298 104 310 L270 468 Q289 487 307 481.5 Q325 476 344 460 Q371 437 404.5 411 Q438 385 476 362.5 Q514 340 556 325 Q598 310 642 310 Q691 310 722 321 Q753 332 771 350 Q789 368 795.5 392.5 Q802 417 802 444 Q802 474 781 497.5 Q760 521 729 538.5 Q698 556 664 569 Q630 582 604 591 Q488 631 400 678 Q312 725 253 782 Q194 839 163.5 908 Q133 977 133 1061 Q133 1150 171 1223 Q209 1296 277.5 1347.5 Q346 1399 441.5 1427.5 Q537 1456 653 1456 Q717 1456 784 1442 Q851 1428 912.5 1403.5 Q974 1379 1027 1344.5 Q1080 1310 1118 1269 Q1138 1246 1138 1225 Q1138 1204 1115 1181 L968 1024 Q948 1004 927.5 1010.5 Q907 1017 887 1035 Q862 1058 825.5 1083.5 Q789 1109 747 1124 Q721 1133 680 1137 Q639 1141 599.5 1133.5 Q560 1126 531.5 1104.5 Q503 1083 503 1042 Q503 1015 518 995.5 Q533 976 562 959.5 Q591 943 632 927.5 Q673 912 726 895 Q828 861 912.5 824 Q997 787 1057.5 736.5 Q1118 686 1151.5 616 Q1185 546 1185 446 Q1185 341 1143.5 255 Q1102 169 1028.5 108.5 Q955 48 855 15 Q755 -18 637 -18 Q563 -18 490 1.5 Q417 21 349.5 54 Q282 87 222.5 131 Q163 175 115 225 Z M636 -229 Q636 -208 622 -190.5 Q608 -173 587 -157.5 Q566 -142 541 -127 Q516 -112 495 -95.5 Q474 -79 460 -60.5 Q446 -42 446 -18 Q446 -6 450 6.5 Q454 19 460 29.5 Q466 40 473.5 47 Q481 54 488 54 L679 55 Q687 55 696 53.5 Q705 52 712 49.5 Q719 47 721 43 Q723 39 718 35 Q709 27 703 19.5 Q697 12 697 1 Q697 -16 711.5 -29 Q726 -42 748 -55.5 Q770 -69 795 -83.5 Q820 -98 842 -117.5 Q864 -137 878.5 -163 Q893 -189 893 -224 Q893 -273 861 -319.5 Q829 -366 781 -404 Q733 -442 678 -469.5 Q623 -497 577 -507 Q566 -509 552.5 -508 Q539 -507 532 -493 L468 -366 Q461 -352 466 -343 Q471 -334 481 -331 Q559 -305 597.5 -282 Q636 -259 636 -229 Z " />
<glyph glyph-name="Scircumflex" unicode="&#x15c;" horiz-adv-x="1260" d="M115 225 Q106 235 98.5 245 Q91 255 88 265.5 Q85 276 88.5 287 Q92 298 104 310 L270 468 Q289 487 307 481.5 Q325 476 344 460 Q371 437 404.5 411 Q438 385 476 362.5 Q514 340 556 325 Q598 310 642 310 Q691 310 722 321 Q753 332 771 350 Q789 368 795.5 392.5 Q802 417 802 444 Q802 474 781 497.5 Q760 521 729 538.5 Q698 556 664 569 Q630 582 604 591 Q488 631 400 678 Q312 725 253 782 Q194 839 163.5 908 Q133 977 133 1061 Q133 1150 171 1223 Q209 1296 277.5 1347.5 Q346 1399 441.5 1427.5 Q537 1456 653 1456 Q717 1456 784 1442 Q851 1428 912.5 1403.5 Q974 1379 1027 1344.5 Q1080 1310 1118 1269 Q1138 1246 1138 1225 Q1138 1204 1115 1181 L968 1024 Q948 1004 927.5 1010.5 Q907 1017 887 1035 Q862 1058 825.5 1083.5 Q789 1109 747 1124 Q721 1133 680 1137 Q639 1141 599.5 1133.5 Q560 1126 531.5 1104.5 Q503 1083 503 1042 Q503 1015 518 995.5 Q533 976 562 959.5 Q591 943 632 927.5 Q673 912 726 895 Q828 861 912.5 824 Q997 787 1057.5 736.5 Q1118 686 1151.5 616 Q1185 546 1185 446 Q1185 341 1143.5 255 Q1102 169 1028.5 108.5 Q955 48 855 15 Q755 -18 637 -18 Q563 -18 490 1.5 Q417 21 349.5 54 Q282 87 222.5 131 Q163 175 115 225 Z M909 1727 Q923 1713 924 1697.5 Q925 1682 909 1667 L831 1592 Q816 1578 800.5 1578.5 Q785 1579 772 1592 L648 1715 L527 1590 Q514 1577 498.5 1576.5 Q483 1576 468 1590 L388 1667 Q372 1682 373 1697.5 Q374 1713 388 1727 L620 1958 Q625 1963 632.5 1967.5 Q640 1972 651 1972 Q662 1972 667.5 1969 Q673 1966 681 1958 L909 1727 Z " />
<glyph glyph-name="Wcircumflex" unicode="&#x174;" horiz-adv-x="2089" d="M1029 412 L894 42 Q879 0 836 0 L597 0 Q555 0 539 42 L26 1383 Q19 1401 25.5 1413.5 Q32 1426 53 1426 L363 1426 Q405 1426 420 1383 L713 518 L980 1383 Q987 1405 1002 1415.5 Q1017 1426 1038 1426 L1356 1426 Q1376 1426 1382.5 1412.5 Q1389 1399 1383 1383 L1210 910 L1347 514 L1655 1383 Q1670 1426 1713 1426 L2027 1426 Q2048 1426 2054.5 1413 Q2061 1400 2054 1383 L1517 42 Q1500 0 1458 0 L1233 0 Q1190 0 1174 42 L1029 412 Z M1425 1748 Q1439 1734 1440 1718.5 Q1441 1703 1425 1688 L1347 1613 Q1332 1599 1316.5 1599.5 Q1301 1600 1288 1613 L1164 1736 L1043 1611 Q1030 1598 1014.5 1597.5 Q999 1597 984 1611 L904 1688 Q888 1703 889 1718.5 Q890 1734 904 1748 L1136 1979 Q1141 1984 1148.5 1988.5 Q1156 1993 1167 1993 Q1178 1993 1183.5 1990 Q1189 1987 1197 1979 L1425 1748 Z " />
<glyph glyph-name="Wdieresis" unicode="&#x1e84;" horiz-adv-x="2089" d="M1029 412 L894 42 Q879 0 836 0 L597 0 Q555 0 539 42 L26 1383 Q19 1401 25.5 1413.5 Q32 1426 53 1426 L363 1426 Q405 1426 420 1383 L713 518 L980 1383 Q987 1405 1002 1415.5 Q1017 1426 1038 1426 L1356 1426 Q1376 1426 1382.5 1412.5 Q1389 1399 1383 1383 L1210 910 L1347 514 L1655 1383 Q1670 1426 1713 1426 L2027 1426 Q2048 1426 2054.5 1413 Q2061 1400 2054 1383 L1517 42 Q1500 0 1458 0 L1233 0 Q1190 0 1174 42 L1029 412 Z M768 1807 Q768 1831 780.5 1848 Q793 1865 825 1865 L985 1865 Q1014 1865 1025.5 1849 Q1037 1833 1037 1807 L1037 1646 Q1037 1616 1023.5 1605.5 Q1010 1595 985 1595 L825 1595 Q800 1595 784 1605.5 Q768 1616 768 1645 L768 1807 Z M1186 1807 Q1186 1831 1198.5 1848 Q1211 1865 1243 1865 L1403 1865 Q1432 1865 1443.5 1849 Q1455 1833 1455 1807 L1455 1646 Q1455 1616 1441.5 1605.5 Q1428 1595 1403 1595 L1243 1595 Q1218 1595 1202 1605.5 Q1186 1616 1186 1645 L1186 1807 Z " />
<glyph glyph-name="Wgrave" unicode="&#x1e80;" horiz-adv-x="2089" d="M1029 412 L894 42 Q879 0 836 0 L597 0 Q555 0 539 42 L26 1383 Q19 1401 25.5 1413.5 Q32 1426 53 1426 L363 1426 Q405 1426 420 1383 L713 518 L980 1383 Q987 1405 1002 1415.5 Q1017 1426 1038 1426 L1356 1426 Q1376 1426 1382.5 1412.5 Q1389 1399 1383 1383 L1210 910 L1347 514 L1655 1383 Q1670 1426 1713 1426 L2027 1426 Q2048 1426 2054.5 1413 Q2061 1400 2054 1383 L1517 42 Q1500 0 1458 0 L1233 0 Q1190 0 1174 42 L1029 412 Z M938 1839 Q930 1858 938.5 1874.5 Q947 1891 965 1891 L1183 1891 Q1208 1891 1221 1881.5 Q1234 1872 1242 1848 L1315 1635 Q1323 1608 1310.5 1597.5 Q1298 1587 1284 1587 L1091 1587 Q1068 1587 1056.5 1594 Q1045 1601 1032 1630 L938 1839 Z " />
<glyph glyph-name="Ycircumflex" unicode="&#x176;" horiz-adv-x="1354" d="M487 581 L34 1383 Q23 1403 31.5 1414.5 Q40 1426 61 1426 L390 1426 Q411 1426 423.5 1415.5 Q436 1405 447 1383 L673 902 L897 1383 Q908 1405 920.5 1415.5 Q933 1426 954 1426 L1287 1426 Q1308 1426 1316.5 1414.5 Q1325 1403 1314 1383 L858 583 L858 42 Q858 0 816 0 L529 0 Q487 0 487 42 L487 581 Z M953 1703 Q967 1689 968 1673.5 Q969 1658 953 1643 L875 1568 Q860 1554 844.5 1554.5 Q829 1555 816 1568 L692 1691 L571 1566 Q558 1553 542.5 1552.5 Q527 1552 512 1566 L432 1643 Q416 1658 417 1673.5 Q418 1689 432 1703 L664 1934 Q669 1939 676.5 1943.5 Q684 1948 695 1948 Q706 1948 711.5 1945 Q717 1942 725 1934 L953 1703 Z " />
<glyph glyph-name="Zdotaccent" unicode="&#x17b;" horiz-adv-x="1375" d="M1268 1426 Q1307 1426 1307 1388 L1307 1176 Q1306 1166 1302 1159.5 Q1298 1153 1295 1149 L607 328 L1274 328 Q1311 328 1311 291 L1311 36 Q1311 -1 1274 -1 L145 -1 Q107 -1 107 36 L107 247 Q107 263 111.5 272.5 Q116 282 124 290 L804 1094 L142 1094 Q104 1094 104 1132 L104 1388 Q104 1426 142 1426 L1268 1426 Z M589 1802 Q589 1826 601.5 1843 Q614 1860 646 1860 L806 1860 Q835 1860 846.5 1844 Q858 1828 858 1802 L858 1641 Q858 1611 844.5 1600.5 Q831 1590 806 1590 L646 1590 Q621 1590 605 1600.5 Q589 1611 589 1640 L589 1802 Z " />
<glyph glyph-name="Ubreve" unicode="&#x16c;" horiz-adv-x="1488" d="M522 569 Q522 498 541.5 448.5 Q561 399 593.5 368 Q626 337 668.5 322.5 Q711 308 757 308 Q805 308 848 325 Q891 342 923 375 Q955 408 974 456.5 Q993 505 993 569 L993 1383 Q993 1400 1005 1413 Q1017 1426 1037 1426 L1317 1426 Q1340 1426 1352 1413 Q1364 1400 1364 1383 L1364 574 Q1364 406 1314.5 292 Q1265 178 1181.5 108.5 Q1098 39 988 8.5 Q878 -22 757 -22 Q636 -22 526 9 Q416 40 332.5 110.5 Q249 181 199.5 295 Q150 409 150 574 L150 1383 Q150 1400 160.5 1413 Q171 1426 188 1426 L481 1426 Q507 1426 514.5 1413.5 Q522 1401 522 1383 L522 569 Z M752 1573 Q696 1573 647.5 1593.5 Q599 1614 563.5 1647.5 Q528 1681 508 1724.5 Q488 1768 488 1814 Q488 1830 498 1840 Q508 1850 523 1850 L663 1850 Q674 1850 679.5 1843.5 Q685 1837 685 1828 Q685 1807 702 1789 Q719 1771 756 1771 Q788 1771 806 1789.5 Q824 1808 824 1828 Q824 1837 829 1843.5 Q834 1850 844 1850 L984 1850 Q1001 1850 1011 1840 Q1021 1830 1021 1814 Q1021 1767 1000 1723.5 Q979 1680 943 1646.5 Q907 1613 858 1593 Q809 1573 752 1573 Z " />
<glyph glyph-name="Uogonek" unicode="&#x172;" horiz-adv-x="1488" d="M522 569 Q522 498 541.5 448.5 Q561 399 593.5 368 Q626 337 668.5 322.5 Q711 308 757 308 Q805 308 848 325 Q891 342 923 375 Q955 408 974 456.5 Q993 505 993 569 L993 1383 Q993 1400 1005 1413 Q1017 1426 1037 1426 L1317 1426 Q1340 1426 1352 1413 Q1364 1400 1364 1383 L1364 574 Q1364 406 1314.5 292 Q1265 178 1181.5 108.5 Q1098 39 988 8.5 Q878 -22 757 -22 Q636 -22 526 9 Q416 40 332.5 110.5 Q249 181 199.5 295 Q150 409 150 574 L150 1383 Q150 1400 160.5 1413 Q171 1426 188 1426 L481 1426 Q507 1426 514.5 1413.5 Q522 1401 522 1383 L522 569 Z M1214 -182 Q1214 -234 1195.5 -281 Q1177 -328 1143.5 -364 Q1110 -400 1063.5 -421 Q1017 -442 961 -442 Q909 -442 863 -422.5 Q817 -403 782 -368.5 Q747 -334 726.5 -287.5 Q706 -241 706 -188 Q706 -139 725 -94 Q744 -49 775 -15 L969 179 Q994 202 1015 179 Q1035 159 1056 138.5 Q1077 118 1097 97 Q1121 75 1097 51 L907 -139 Q897 -149 893 -161 Q889 -173 888 -187 Q889 -222 911 -238.5 Q933 -255 960 -256 Q973 -256 986 -252 Q999 -248 1009 -239.5 Q1019 -231 1025 -218 Q1031 -205 1030 -187 Q1030 -167 1040.5 -157.5 Q1051 -148 1064 -148 L1181 -148 Q1192 -148 1203 -157 Q1214 -166 1214 -182 Z " />
<glyph glyph-name="Uring" unicode="&#x16e;" horiz-adv-x="1488" d="M522 569 Q522 498 541.5 448.5 Q561 399 593.5 368 Q626 337 668.5 322.5 Q711 308 757 308 Q805 308 848 325 Q891 342 923 375 Q955 408 974 456.5 Q993 505 993 569 L993 1383 Q993 1400 1005 1413 Q1017 1426 1037 1426 L1317 1426 Q1340 1426 1352 1413 Q1364 1400 1364 1383 L1364 574 Q1364 406 1314.5 292 Q1265 178 1181.5 108.5 Q1098 39 988 8.5 Q878 -22 757 -22 Q636 -22 526 9 Q416 40 332.5 110.5 Q249 181 199.5 295 Q150 409 150 574 L150 1383 Q150 1400 160.5 1413 Q171 1426 188 1426 L481 1426 Q507 1426 514.5 1413.5 Q522 1401 522 1383 L522 569 Z M761 1950 Q803 1950 839.5 1934 Q876 1918 904 1890.5 Q932 1863 948 1826.5 Q964 1790 964 1748 Q964 1706 948 1669 Q932 1632 904 1605 Q876 1578 839.5 1562.5 Q803 1547 761 1547 Q719 1547 682.5 1562.5 Q646 1578 618.5 1605 Q591 1632 575.5 1669 Q560 1706 560 1748 Q560 1790 575.5 1826.5 Q591 1863 618.5 1890.5 Q646 1918 682.5 1934 Q719 1950 761 1950 Z M762 1806 Q737 1806 721.5 1789.5 Q706 1773 706 1749 Q706 1724 721.5 1708.5 Q737 1693 762 1693 Q787 1693 803.5 1708.5 Q820 1724 820 1749 Q820 1773 803.5 1789.5 Q787 1806 762 1806 Z " />
<glyph glyph-name="Utilde" unicode="&#x168;" horiz-adv-x="1488" d="M522 569 Q522 498 541.5 448.5 Q561 399 593.5 368 Q626 337 668.5 322.5 Q711 308 757 308 Q805 308 848 325 Q891 342 923 375 Q955 408 974 456.5 Q993 505 993 569 L993 1383 Q993 1400 1005 1413 Q1017 1426 1037 1426 L1317 1426 Q1340 1426 1352 1413 Q1364 1400 1364 1383 L1364 574 Q1364 406 1314.5 292 Q1265 178 1181.5 108.5 Q1098 39 988 8.5 Q878 -22 757 -22 Q636 -22 526 9 Q416 40 332.5 110.5 Q249 181 199.5 295 Q150 409 150 574 L150 1383 Q150 1400 160.5 1413 Q171 1426 188 1426 L481 1426 Q507 1426 514.5 1413.5 Q522 1401 522 1383 L522 569 Z M530 1611 Q522 1601 512.5 1601 Q503 1601 494 1606 Q485 1611 476.5 1618.5 Q468 1626 462 1632 L401 1691 Q387 1704 381 1712 Q375 1720 376 1727 Q377 1734 383.5 1743 Q390 1752 401 1768 Q440 1826 496 1858.5 Q552 1891 615 1891 Q651 1890 686.5 1874.5 Q722 1859 754 1841 Q786 1823 813 1808.5 Q840 1794 860 1794 Q886 1794 900 1807 Q914 1820 934 1844 Q952 1867 970.5 1866 Q989 1865 1004 1849 L1091 1761 Q1104 1748 1103 1737 Q1102 1726 1097 1720 Q1054 1654 994 1617 Q934 1580 862 1580 Q824 1580 790 1595 Q756 1610 725.5 1628 Q695 1646 668 1661 Q641 1676 617 1676 Q599 1676 586 1669.5 Q573 1663 563.5 1653 Q554 1643 546 1632 Q538 1621 530 1611 Z " />
<glyph glyph-name="Lacute" unicode="&#x139;" horiz-adv-x="1131" d="M121 1383 Q121 1404 133 1415 Q145 1426 162 1426 L449 1426 Q491 1426 491 1383 L491 340 L1023 340 Q1065 340 1065 298 L1065 42 Q1065 0 1023 0 L162 0 Q121 0 121 42 L121 1383 Z M475 1628 Q462 1599 450.5 1592 Q439 1585 416 1585 L223 1585 Q209 1585 196.5 1595.5 Q184 1606 192 1633 L265 1846 Q273 1870 286 1879.5 Q299 1889 324 1889 L542 1889 Q560 1889 568.5 1872.5 Q577 1856 569 1837 L475 1628 Z " />
<glyph glyph-name="Lslash" unicode="&#x141;" horiz-adv-x="1131" d="M-40 659 Q-40 673 -38 684 Q-36 695 -23 700 L628 942 Q642 947 654 943 Q666 939 666 925 L666 803 Q666 789 664 779 Q662 769 650 764 L-2 522 Q-6 520 -12.5 519.5 Q-19 519 -25 520.5 Q-31 522 -35.5 526.5 Q-40 531 -40 539 L-40 659 Z M121 1383 Q121 1404 133 1415 Q145 1426 162 1426 L449 1426 Q491 1426 491 1383 L491 340 L1023 340 Q1065 340 1065 298 L1065 42 Q1065 0 1023 0 L162 0 Q121 0 121 42 L121 1383 Z " />
<glyph glyph-name="lacute" unicode="&#x13a;" horiz-adv-x="595" d="M115 1536 Q115 1559 128.5 1570 Q142 1581 162 1581 L434 1581 Q454 1581 467 1568.5 Q480 1556 480 1536 L480 45 Q480 25 468 12.5 Q456 0 434 0 L162 0 Q140 0 127.5 11 Q115 22 115 45 L115 1536 Z M442 1740 Q429 1711 417.5 1704 Q406 1697 383 1697 L190 1697 Q176 1697 163.5 1707.5 Q151 1718 159 1745 L232 1958 Q240 1982 253 1991.5 Q266 2001 291 2001 L509 2001 Q527 2001 535.5 1984.5 Q544 1968 536 1949 L442 1740 Z " />
<glyph glyph-name="racute" unicode="&#x155;" horiz-adv-x="1104" d="M115 1181 Q115 1225 158 1225 L322 1225 Q344 1225 361.5 1218 Q379 1211 394 1175 L436 1068 Q466 1101 494.5 1131.5 Q523 1162 556.5 1185.5 Q590 1209 632.5 1223 Q675 1237 733 1237 Q793 1237 849 1217.5 Q905 1198 950.5 1172 Q996 1146 1028.5 1121 Q1061 1096 1073 1085 Q1098 1063 1098 1045.5 Q1098 1028 1084 1008 L959 831 Q946 812 930.5 811.5 Q915 811 898 826 Q885 837 866.5 853 Q848 869 823 883.5 Q798 898 767 908 Q736 918 699 918 Q655 918 615.5 904.5 Q576 891 547 864 Q518 837 501 796.5 Q484 756 484 703 L484 43 Q484 0 440 0 L158 0 Q115 0 115 43 L115 1181 Z M796 1411 Q783 1382 771.5 1375 Q760 1368 737 1368 L544 1368 Q530 1368 517.5 1378.5 Q505 1389 513 1416 L586 1629 Q594 1653 607 1662.5 Q620 1672 645 1672 L863 1672 Q881 1672 889.5 1655.5 Q898 1639 890 1620 L796 1411 Z " />
<glyph glyph-name="tbar" unicode="&#x167;" horiz-adv-x="824" d="M100 629 Q100 649 112.5 660 Q125 671 138 671 L604 671 Q642 671 642 632 L642 479 Q642 460 629.5 450.5 Q617 441 600 441 L138 441 Q126 441 113 450.5 Q100 460 100 479 L100 629 Z M560 884 L560 42 Q560 0 517 0 L230 0 Q188 0 188 42 L188 884 L54 884 Q15 884 15 923 L15 1182 Q15 1199 25 1209.5 Q35 1220 54 1220 L188 1220 L188 1417 Q188 1438 197 1451 Q206 1464 235 1474 L486 1557 Q515 1567 537.5 1553 Q560 1539 560 1501 L560 1220 L721 1220 Q740 1220 749.5 1208 Q759 1196 759 1182 L759 923 Q759 884 721 884 L560 884 Z " />
<glyph glyph-name="tcaron" unicode="&#x165;" horiz-adv-x="824" d="M560 884 L560 42 Q560 0 517 0 L230 0 Q188 0 188 42 L188 884 L54 884 Q15 884 15 923 L15 1182 Q15 1199 25 1209.5 Q35 1220 54 1220 L188 1220 L188 1417 Q188 1438 197 1451 Q206 1464 235 1474 L486 1557 Q515 1567 537.5 1553 Q560 1539 560 1501 L560 1220 L721 1220 Q740 1220 749.5 1208 Q759 1196 759 1182 L759 923 Q759 884 721 884 L560 884 Z M835 1493 Q835 1528 850 1539.5 Q865 1551 885 1551 L1094 1551 Q1147 1551 1147 1496 L1147 1342 Q1147 1264 1130.5 1206.5 Q1114 1149 1091 1108.5 Q1068 1068 1042.5 1042.5 Q1017 1017 998 1004 Q985 996 970.5 992.5 Q956 989 939 1005 L883 1058 Q875 1066 874 1073.5 Q873 1081 876 1087.5 Q879 1094 884 1099 Q889 1104 893 1108 Q912 1126 923.5 1144 Q935 1162 941 1177.5 Q947 1193 948.5 1206 Q950 1219 950 1228 L950 1237 Q950 1244 946 1249 Q942 1254 932 1254 L881 1254 Q861 1254 848 1266.5 Q835 1279 835 1305 L835 1493 Z " />
<glyph glyph-name="Tbar" unicode="&#x166;" horiz-adv-x="1279" d="M281 815 Q281 842 297.5 856 Q314 870 332 870 L938 870 Q964 870 972 859 Q980 848 980 828 L980 645 Q980 626 967 613 Q954 600 930 600 L332 600 Q315 600 298 612.5 Q281 625 281 651 L281 815 Z M77 1383 Q77 1426 119 1426 L1161 1426 Q1203 1426 1203 1383 L1203 1140 Q1203 1097 1161 1097 L820 1097 L820 42 Q820 0 777 0 L500 0 Q458 0 458 42 L458 1097 L119 1097 Q77 1097 77 1140 L77 1383 Z " />
<glyph glyph-name="plusminus" unicode="&#xb1;" horiz-adv-x="905" d="M326 331 Q312 331 303 339.5 Q294 348 294 362 L294 562 L103 562 Q95 562 84.5 569 Q74 576 74 592 L74 809 Q74 823 82.5 832 Q91 841 105 841 L294 841 L294 1043 Q294 1057 302 1064.5 Q310 1072 324 1072 L563 1072 Q577 1072 585 1063 Q593 1054 593 1041 L593 841 L786 841 Q800 841 807.5 833 Q815 825 815 811 L815 592 Q815 578 806 570 Q797 562 784 562 L593 562 L593 360 Q593 352 586 341.5 Q579 331 563 331 L326 331 Z M126 0 Q106 0 95 10 Q84 20 84 41 L84 204 Q84 221 89 230.5 Q94 240 100.5 245 Q107 250 114 251 Q121 252 126 252 L765 252 Q782 252 794.5 241 Q807 230 807 210 L807 45 Q807 29 797 14.5 Q787 0 765 0 L126 0 Z " />
<glyph glyph-name="fraction" unicode="&#x2044;" horiz-adv-x="1054" d="M794 1398 Q799 1406 807.5 1416 Q816 1426 841 1426 L987 1426 Q1002 1426 1009.5 1421.5 Q1017 1417 1019.5 1409.5 Q1022 1402 1019.5 1393.5 Q1017 1385 1013 1377 L258 31 Q251 20 245 13.5 Q239 7 233 4 Q227 1 221 0.5 Q215 0 208 0 L64 0 Q49 0 45.5 12 Q42 24 48 35 L794 1398 Z " />
<glyph glyph-name="dotlessi" unicode="&#x131;" horiz-adv-x="597" d="M114 1183 Q114 1204 127.5 1214.5 Q141 1225 156 1225 L441 1225 Q459 1225 471 1213.5 Q483 1202 483 1183 L483 42 Q483 0 441 0 L156 0 Q114 0 114 42 L114 1183 Z " />
<glyph glyph-name="guillemotright" unicode="&#xbb;" horiz-adv-x="1415" d="M1373 563 Q1384 574 1387 588 Q1390 602 1373 619 L862.033 1133 Q858.034 1137 852.034 1140.5 Q846.034 1144 839.535 1145 Q833.035 1146 825.536 1144.5 Q818.036 1143 811.036 1136 L665.045 993 Q654.046 982 652.046 964.5 Q650.046 947 663.046 934 L1007.02 591 L661.046 263 Q648.046 250 650.046 232.5 Q652.046 215 663.046 204 L809.037 61 Q816.036 54 823.536 52.5 Q831.035 51 837.535 52 Q844.034 53 850.034 56.5 Q856.034 60 860.034 64 L1373 563 Z M737.041 563 Q748.04 574 751.04 588 Q754.04 602 737.041 619 L233.072 1125 Q229.072 1129 223.072 1132.5 Q217.073 1136 210.573 1137 Q204.074 1138 196.574 1136.5 Q189.074 1135 182.075 1128 L36.0838 985 Q25.0845 974 23.0846 956.5 Q21.0847 939 34.0839 926 L371.063 591 L45.0833 267 Q32.084 254 34.0839 236.5 Q36.0838 219 47.0831 208 L193.074 65 Q200.074 58 207.573 56.5 Q215.073 55 221.572 56 Q228.072 57 234.072 60.5 Q240.071 64 244.071 68 L737.041 563 Z " />
<glyph glyph-name="guillemotleft" unicode="&#xab;" horiz-adv-x="1409" d="M36 563 Q25 574 22 588 Q19 602 36 619 L547 1133 Q551 1137 557 1140.5 Q563 1144 569.5 1145 Q576 1146 583.5 1144.5 Q591 1143 598 1136 L744 993 Q755 982 757 964.5 Q759 947 746 934 L402 591 L748 263 Q761 250 759 232.5 Q757 215 746 204 L600 61 Q593 54 585.5 52.5 Q578 51 571.5 52 Q565 53 559 56.5 Q553 60 549 64 L36 563 Z M672 563 Q661 574 658 588 Q655 602 672 619 L1176 1125 Q1180 1129 1186 1132.5 Q1192 1136 1198.5 1137 Q1205 1138 1212.5 1136.5 Q1220 1135 1227 1128 L1373 985 Q1384 974 1386 956.5 Q1388 939 1375 926 L1038 591 L1364 267 Q1377 254 1375 236.5 Q1373 219 1362 208 L1216 65 Q1209 58 1201.5 56.5 Q1194 55 1187.5 56 Q1181 57 1175 60.5 Q1169 64 1165 68 L672 563 Z " />
<glyph glyph-name="minus" unicode="&#x2212;" horiz-adv-x="1056" d="M213 514 Q193 514 182 524 Q171 534 171 555 L171 718 Q171 735 176 744.5 Q181 754 187.5 759 Q194 764 201 765 Q208 766 213 766 L852 766 Q869 766 881.5 755 Q894 744 894 724 L894 559 Q894 543 884 528.5 Q874 514 852 514 L213 514 Z " />
<glyph glyph-name="figuredash" unicode="&#x2012;" horiz-adv-x="1056" d="M171 764 Q171 791 187 805 Q203 819 220 819 L843 819 Q893 819 893 768 L893 582 Q893 557 877 545 Q861 533 837 533 L220 533 Q204 533 187.5 545 Q171 557 171 582 L171 764 Z " />
<glyph glyph-name="uni00AD" unicode="&#xad;" horiz-adv-x="1056" d="M171 684 Q171 711 187 725 Q203 739 220 739 L843 739 Q893 739 893 688 L893 542 Q893 517 877 505 Q861 493 837 493 L220 493 Q204 493 187.5 505 Q171 517 171 542 L171 684 Z " />
<glyph glyph-name="onedotenleader" unicode="&#x2024;" horiz-adv-x="570" d="M115 156 Q115 192 129 223.5 Q143 255 166.5 279 Q190 303 221.5 316.5 Q253 330 289 330 Q326 330 358 316.5 Q390 303 413 279 Q436 255 449.5 223.5 Q463 192 463 156 Q463 120 449.5 88.5 Q436 57 413 33 Q390 9 358 -4.5 Q326 -18 289 -18 Q253 -18 221.5 -4.5 Q190 9 166.5 33 Q143 57 129 88.5 Q115 120 115 156 Z " />
<glyph glyph-name="twodotenleader" unicode="&#x2025;" horiz-adv-x="1117" d="M163 156 Q163 192 177 223.5 Q191 255 214.5 279 Q238 303 269.5 316.5 Q301 330 337 330 Q374 330 406 316.5 Q438 303 461 279 Q484 255 497.5 223.5 Q511 192 511 156 Q511 120 497.5 88.5 Q484 57 461 33 Q438 9 406 -4.5 Q374 -18 337 -18 Q301 -18 269.5 -4.5 Q238 9 214.5 33 Q191 57 177 88.5 Q163 120 163 156 Z M652 156 Q652 192 666 223.5 Q680 255 703.5 279 Q727 303 758.5 316.5 Q790 330 826 330 Q863 330 895.5 316.5 Q928 303 951 279 Q974 255 987.5 223.5 Q1001 192 1001 156 Q1001 120 987.5 88.5 Q974 57 951 33 Q928 9 895.5 -4.5 Q863 -18 826 -18 Q790 -18 758.5 -4.5 Q727 9 703.5 33 Q680 57 666 88.5 Q652 120 652 156 Z " />
<glyph glyph-name="exclamdbl" unicode="&#x203c;" horiz-adv-x="1431" d="M841 1537 Q841 1579 884 1579 L1141 1579 Q1183 1579 1183 1537 L1183 544 Q1183 502 1141 502 L884 502 Q841 502 841 544 L841 1537 Z M841 295 Q841 321 855.5 332 Q870 343 885 343 L1137 343 Q1151 343 1160 337.5 Q1169 332 1174 325 Q1179 318 1181 310 Q1183 302 1183 298 L1183 44 Q1183 30 1177.5 21.5 Q1172 13 1164.5 8 Q1157 3 1149 1.5 Q1141 0 1137 0 L885 0 Q881 0 874 2 Q867 4 859.5 8.5 Q852 13 846.5 21.5 Q841 30 841 44 L841 295 Z M156 1537 Q156 1579 199 1579 L456 1579 Q498 1579 498 1537 L498 544 Q498 502 456 502 L199 502 Q156 502 156 544 L156 1537 Z M156 295 Q156 321 170.5 332 Q185 343 200 343 L452 343 Q466 343 475 337.5 Q484 332 489 325 Q494 318 496 310 Q498 302 498 298 L498 44 Q498 30 492.5 21.5 Q487 13 479.5 8 Q472 3 464 1.5 Q456 0 452 0 L200 0 Q196 0 189 2 Q182 4 174.5 8.5 Q167 13 161.5 21.5 Q156 30 156 44 L156 295 Z " />
<glyph glyph-name="Dcroat" unicode="&#x110;" horiz-adv-x="1484" d="M53 787 Q53 811 67.5 824 Q82 837 98 837 L651 837 Q655 837 662.5 834 Q670 831 677.5 825.5 Q685 820 690 811.5 Q695 803 695 791 L695 624 Q695 607 681 593 Q667 579 645 579 L98 579 Q84 579 68.5 590 Q53 601 53 624 L53 787 Z M153 1383 Q153 1426 195 1426 L693 1426 Q783 1426 870.5 1400.5 Q958 1375 1037 1329 Q1116 1283 1183 1217.5 Q1250 1152 1299 1073 Q1348 994 1376 902.5 Q1404 811 1404 712 Q1404 619 1378.5 529.5 Q1353 440 1307 361 Q1261 282 1196 215.5 Q1131 149 1052 101.5 Q973 54 882 27 Q791 0 693 0 L195 0 Q153 0 153 42 L153 1383 Z M1032 712 Q1032 790 1003.5 858 Q975 926 925 976.5 Q875 1027 806.5 1056.5 Q738 1086 658 1086 L524 1086 L524 340 L658 340 Q738 340 806.5 369.5 Q875 399 925 449.5 Q975 500 1003.5 567.5 Q1032 635 1032 712 Z " />
<glyph glyph-name="twosuperior" unicode="&#xb2;" horiz-adv-x="803" d="M145 619 Q132 619 122.5 628.5 Q113 638 113 651 L113 729 Q113 737 114 746.5 Q115 756 123 764 L459 1109 Q468 1119 480 1136.5 Q492 1154 492 1181 Q492 1201 483 1217 Q474 1233 460.5 1244 Q447 1255 431 1260.5 Q415 1266 400 1266 Q362 1266 341.5 1252 Q321 1238 311 1218 Q301 1198 299.5 1175 Q298 1152 298 1134 Q298 1114 286.5 1108 Q275 1102 264 1102 L153 1102 Q123 1102 121 1133 Q118 1174 129 1225.5 Q140 1277 172 1323 Q204 1369 260.5 1400 Q317 1431 404 1431 Q453 1431 501 1414.5 Q549 1398 587 1367 Q625 1336 649 1291.5 Q673 1247 676 1191 Q676 1165 673.5 1141.5 Q671 1118 663.5 1095 Q656 1072 642 1049.5 Q628 1027 605 1004 L396 792 L641 792 Q654 792 665.5 784.5 Q677 777 677 763 L677 651 Q677 634 669 626.5 Q661 619 648 619 L145 619 Z " />
<glyph glyph-name="threesuperior" unicode="&#xb3;" horiz-adv-x="726" d="M341 958 Q318 958 308.5 966.5 Q299 975 299 992 L299 1092 Q299 1114 308.5 1124 Q318 1134 341 1134 Q359 1134 370.5 1139.5 Q382 1145 389 1153.5 Q396 1162 398.5 1172.5 Q401 1183 401 1193 Q401 1203 399.5 1215 Q398 1227 393 1236.5 Q388 1246 377 1252.5 Q366 1259 348 1259 Q331 1259 321.5 1253 Q312 1247 306.5 1237.5 Q301 1228 299.5 1215 Q298 1202 298 1188 Q298 1165 288 1154 Q278 1143 253 1143 L165 1143 Q124 1143 124 1185 Q124 1249 142 1294.5 Q160 1340 191.5 1368.5 Q223 1397 264 1410.5 Q305 1424 352 1424 Q398 1424 439.5 1406 Q481 1388 512 1357.5 Q543 1327 561 1285.5 Q579 1244 579 1197 Q579 1125 539 1071 Q581 1038 604.5 992 Q628 946 628 869 Q628 813 608 764 Q588 715 552 679 Q516 643 466 622 Q416 601 356 601 Q304 601 255.5 616 Q207 631 169.5 665.5 Q132 700 109.5 756 Q87 812 87 893 Q87 908 96.5 921 Q106 934 128 934 L223 934 Q264 934 264 893 Q264 859 271 836.5 Q278 814 290 801 Q302 788 319 783 Q336 778 356 778 Q401 778 425.5 801.5 Q450 825 450 871 Q450 920 426 939 Q402 958 341 958 Z " />
<glyph glyph-name="onesuperior" unicode="&#xb9;" horiz-adv-x="449" d="M321 1426 Q334 1426 342 1419 Q350 1412 350 1399 L350 671 Q350 643 321 643 L183 643 Q166 643 160.5 652 Q155 661 155 670 L155 1248 L85 1213 Q74 1207 64 1214.5 Q54 1222 54 1234 L54 1346 Q54 1357 56.5 1365 Q59 1373 76 1381 L160 1419 Q174 1425 182 1425.5 Q190 1426 199 1426 L321 1426 Z " />
<glyph glyph-name="ordmasculine" unicode="&#xba;" horiz-adv-x="981" d="M98 1061 Q98 1140 128 1209.5 Q158 1279 209.5 1331 Q261 1383 330 1413 Q399 1443 478 1443 Q557 1443 626.5 1413 Q696 1383 747.5 1331 Q799 1279 829 1209.5 Q859 1140 859 1061 Q859 982 829 913 Q799 844 747.5 792.5 Q696 741 626.5 711 Q557 681 478 681 Q399 681 330 711 Q261 741 209.5 792.5 Q158 844 128 913 Q98 982 98 1061 Z M338 1060 Q338 1031 349 1005.5 Q360 980 378.5 961.5 Q397 943 422 932 Q447 921 476 921 Q505 921 530.5 932 Q556 943 574.5 961.5 Q593 980 604 1005.5 Q615 1031 615 1060 Q615 1089 604.5 1114.5 Q594 1140 575 1158.5 Q556 1177 531 1188 Q506 1199 476 1199 Q447 1199 422 1188 Q397 1177 378.5 1158.5 Q360 1140 349 1114.5 Q338 1089 338 1060 Z " />
<glyph glyph-name="ordfeminine" unicode="&#xaa;" horiz-adv-x="981" d="M646 815 Q641 810 631 795 Q621 780 599.5 764 Q578 748 543.5 735 Q509 722 455 722 Q380 722 315 750 Q250 778 202 826 Q154 874 126 939 Q98 1004 98 1079 Q98 1154 125.5 1219 Q153 1284 200.5 1332.5 Q248 1381 310.5 1409 Q373 1437 444 1436 Q484 1436 515 1429 Q546 1422 571 1409.5 Q596 1397 617 1377.5 Q638 1358 659 1332 L673 1398 Q676 1412 682 1419 Q688 1426 703 1426 L824 1426 Q834 1426 844.5 1421.5 Q855 1417 855 1398 L855 762 Q855 756 851.5 745.5 Q848 735 831 735 L671 735 Q662 735 656.5 739 Q651 743 649 748 Q647 753 646.5 758.5 Q646 764 646 766 L646 815 Z M314 1080 Q314 1051 324.5 1025.5 Q335 1000 353.5 981 Q372 962 397 951.5 Q422 941 452 941 Q481 941 506.5 951.5 Q532 962 550.5 981 Q569 1000 580 1025.5 Q591 1051 591 1080 Q591 1109 580 1134.5 Q569 1160 550.5 1178.5 Q532 1197 506.5 1208 Q481 1219 452 1219 Q422 1219 397 1208.5 Q372 1198 353.5 1179 Q335 1160 324.5 1135 Q314 1110 314 1080 Z " />
<glyph glyph-name="onequarter" unicode="&#xbc;" horiz-adv-x="1442" d="M357 1426 Q370 1426 378 1419 Q386 1412 386 1399 L386 671 Q386 643 357 643 L219 643 Q202 643 196.5 652 Q191 661 191 670 L191 1248 L121 1213 Q110 1207 100 1214.5 Q90 1222 90 1234 L90 1346 Q90 1357 92.5 1365 Q95 1373 112 1381 L196 1419 Q210 1425 218 1425.5 Q226 1426 235 1426 L357 1426 Z M960 1398 Q965 1406 973.5 1416 Q982 1426 1007 1426 L1153 1426 Q1168 1426 1175.5 1421.5 Q1183 1417 1185.5 1409.5 Q1188 1402 1185.5 1393.5 Q1183 1385 1179 1377 L424 31 Q417 20 411 13.5 Q405 7 399 4 Q393 1 387 0.5 Q381 0 374 0 L230 0 Q215 0 211.5 12 Q208 24 214 35 L960 1398 Z M762 113 Q744 113 736.5 123.5 Q729 134 729 147 Q729 155 731 165 Q733 175 738 182 L1091 761 Q1096 769 1105 776.5 Q1114 784 1132 784 L1251 784 Q1266 784 1272.5 778.5 Q1279 773 1279 754 L1279 303 L1337 303 Q1350 303 1358.5 296 Q1367 289 1367 275 L1367 139 Q1367 127 1357.5 120.5 Q1348 114 1341 114 L1279 114 L1279 24 Q1279 -4 1248 -4 L1117 -4 Q1090 -4 1090 24 L1090 113 L762 113 Z M1097 301 L1097 461 L1004 301 L1097 301 Z " />
<glyph glyph-name="onehalf" unicode="&#xbd;" horiz-adv-x="1547" d="M344 1426 Q357 1426 365 1419 Q373 1412 373 1399 L373 671 Q373 643 344 643 L206 643 Q189 643 183.5 652 Q178 661 178 670 L178 1248 L108 1213 Q97 1207 87 1214.5 Q77 1222 77 1234 L77 1346 Q77 1357 79.5 1365 Q82 1373 99 1381 L183 1419 Q197 1425 205 1425.5 Q213 1426 222 1426 L344 1426 Z M933 2 Q920 2 910.5 11.5 Q901 21 901 34 L901 112 Q901 120 902 129.5 Q903 139 911 147 L1247 492 Q1256 502 1268 519.5 Q1280 537 1280 564 Q1280 584 1271 600 Q1262 616 1248.5 627 Q1235 638 1219 643.5 Q1203 649 1188 649 Q1150 649 1129.5 635 Q1109 621 1099 601 Q1089 581 1087.5 558 Q1086 535 1086 517 Q1086 497 1074.5 491 Q1063 485 1052 485 L941 485 Q911 485 909 516 Q906 557 917 608.5 Q928 660 960 706 Q992 752 1048.5 783 Q1105 814 1192 814 Q1241 814 1289 797.5 Q1337 781 1375 750 Q1413 719 1437 674.5 Q1461 630 1464 574 Q1464 548 1461.5 524.5 Q1459 501 1451.5 478 Q1444 455 1430 432.5 Q1416 410 1393 387 L1184 175 L1429 175 Q1442 175 1453.5 167.5 Q1465 160 1465 146 L1465 34 Q1465 17 1457 9.5 Q1449 2 1436 2 L933 2 Z M963 1398 Q968 1406 976.5 1416 Q985 1426 1010 1426 L1156 1426 Q1171 1426 1178.5 1421.5 Q1186 1417 1188.5 1409.5 Q1191 1402 1188.5 1393.5 Q1186 1385 1182 1377 L427 31 Q420 20 414 13.5 Q408 7 402 4 Q396 1 390 0.5 Q384 0 377 0 L233 0 Q218 0 214.5 12 Q211 24 217 35 L963 1398 Z " />
<glyph glyph-name="threequarters" unicode="&#xbe;" horiz-adv-x="1471" d="M301 958 Q278 958 268.5 966.5 Q259 975 259 992 L259 1092 Q259 1114 268.5 1124 Q278 1134 301 1134 Q319 1134 330.5 1139.5 Q342 1145 349 1153.5 Q356 1162 358.5 1172.5 Q361 1183 361 1193 Q361 1203 359.5 1215 Q358 1227 353 1236.5 Q348 1246 337 1252.5 Q326 1259 308 1259 Q291 1259 281.5 1253 Q272 1247 266.5 1237.5 Q261 1228 259.5 1215 Q258 1202 258 1188 Q258 1165 248 1154 Q238 1143 213 1143 L125 1143 Q84 1143 84 1185 Q84 1249 102 1294.5 Q120 1340 151.5 1368.5 Q183 1397 224 1410.5 Q265 1424 312 1424 Q358 1424 399.5 1406 Q441 1388 472 1357.5 Q503 1327 521 1285.5 Q539 1244 539 1197 Q539 1125 499 1071 Q541 1038 564.5 992 Q588 946 588 869 Q588 813 568 764 Q548 715 512 679 Q476 643 426 622 Q376 601 316 601 Q264 601 215.5 616 Q167 631 129.5 665.5 Q92 700 69.5 756 Q47 812 47 893 Q47 908 56.5 921 Q66 934 88 934 L183 934 Q224 934 224 893 Q224 859 231 836.5 Q238 814 250 801 Q262 788 279 783 Q296 778 316 778 Q361 778 385.5 801.5 Q410 825 410 871 Q410 920 386 939 Q362 958 301 958 Z M1027 1398 Q1032 1406 1040.5 1416 Q1049 1426 1074 1426 L1220 1426 Q1235 1426 1242.5 1421.5 Q1250 1417 1252.5 1409.5 Q1255 1402 1252.5 1393.5 Q1250 1385 1246 1377 L491 31 Q484 20 478 13.5 Q472 7 466 4 Q460 1 454 0.5 Q448 0 441 0 L297 0 Q282 0 278.5 12 Q275 24 281 35 L1027 1398 Z M795 124 Q777 124 769.5 134.5 Q762 145 762 158 Q762 166 764 176 Q766 186 771 193 L1124 772 Q1129 780 1138 787.5 Q1147 795 1165 795 L1284 795 Q1299 795 1305.5 789.5 Q1312 784 1312 765 L1312 314 L1370 314 Q1383 314 1391.5 307 Q1400 300 1400 286 L1400 150 Q1400 138 1390.5 131.5 Q1381 125 1374 125 L1312 125 L1312 35 Q1312 7 1281 7 L1150 7 Q1123 7 1123 35 L1123 124 L795 124 Z M1130 312 L1130 472 L1037 312 L1130 312 Z " />
<glyph glyph-name="logicalnot" unicode="&#xac;" horiz-adv-x="1116" d="M134 524 Q117 524 105 532 Q93 540 93 557 L92 706 Q92 714 93 723.5 Q94 733 98.5 741 Q103 749 111 754.5 Q119 760 134 760 L977 760 Q1020 760 1020 718 L1020 255 Q1020 239 1011 226.5 Q1002 214 985 214 L834 213 Q813 213 797.5 225 Q782 237 782 255 L782 524 L134 524 Z " />
<glyph glyph-name="divide" unicode="&#xf7;" horiz-adv-x="910" d="M146 467 Q126 467 115 477 Q104 487 104 508 L104 726 Q104 743 109 752.5 Q114 762 120.5 767 Q127 772 134 773 Q141 774 146 774 L785 774 Q802 774 814.5 763 Q827 752 827 732 L827 512 Q827 496 817 481.5 Q807 467 785 467 L146 467 Z M317 273 Q317 294 329 303.5 Q341 313 355 313 L591 313 Q603 313 611 308.5 Q619 304 623 297.5 Q627 291 628.5 284.5 Q630 278 630 274 L630 38 Q630 26 625 18.5 Q620 11 613.5 7 Q607 3 600.5 1.5 Q594 0 591 0 L355 0 Q352 0 345.5 1.5 Q339 3 332.5 7 Q326 11 321.5 18.5 Q317 26 317 38 L317 273 Z M317 1185 Q317 1206 329 1215.5 Q341 1225 355 1225 L591 1225 Q603 1225 611 1220.5 Q619 1216 623 1209.5 Q627 1203 628.5 1196.5 Q630 1190 630 1186 L630 950 Q630 938 625 930.5 Q620 923 613.5 919 Q607 915 600.5 913.5 Q594 912 591 912 L355 912 Q352 912 345.5 913.5 Q339 915 332.5 919 Q326 923 321.5 930.5 Q317 938 317 950 L317 1185 Z " />
<glyph glyph-name="zerosuperior" unicode="&#x2070;" horiz-adv-x="948" d="M108 1054 Q108 1135 138.5 1206.5 Q169 1278 222.5 1330.5 Q276 1383 347.5 1413.5 Q419 1444 500 1444 Q582 1444 653.5 1413.5 Q725 1383 778 1330 Q831 1277 862 1206 Q893 1135 893 1054 Q893 973 862 902 Q831 831 778 778 Q725 725 653 694.5 Q581 664 500 664 Q419 664 347.5 694.5 Q276 725 222.5 778 Q169 831 138.5 902 Q108 973 108 1054 Z M341 1054 Q341 1020 353 990 Q365 960 386 937.5 Q407 915 436 902 Q465 889 500 889 Q535 889 564.5 902 Q594 915 615 937.5 Q636 960 648 990 Q660 1020 660 1054 Q660 1088 648 1118 Q636 1148 615 1170.5 Q594 1193 565 1206 Q536 1219 501 1219 Q466 1219 436.5 1206 Q407 1193 386 1171 Q365 1149 353 1118.5 Q341 1088 341 1054 Z " />
<glyph glyph-name="multiply" unicode="&#xd7;" horiz-adv-x="864" d="M85 493 Q75 503 74.5 515.5 Q74 528 84 537 L226 679 L91 814 Q85 820 82.5 832.5 Q80 845 91 856 L245 1009 Q254 1019 267 1019 Q280 1019 289 1010 L423 876 L566 1019 Q576 1029 587 1028.5 Q598 1028 607 1018 L776 849 Q787 839 786 827 Q785 815 776 806 L634 664 L771 528 Q791 507 770 486 L615 332 Q605 321 593 322 Q581 323 572 332 L437 467 L294 325 Q288 319 276 316.5 Q264 314 253 325 L85 493 Z " />
<glyph glyph-name="copyright" unicode="&#xa9;" horiz-adv-x="1859" d="M1202 1097 Q1221 1085 1229.5 1073 Q1238 1061 1227 1041 L1140 886 Q1135 877 1131 871 Q1127 865 1122.5 862.5 Q1118 860 1111 861.5 Q1104 863 1094 868 Q1047 892 1012.5 895 Q978 898 950 898 Q905 898 869 882 Q833 866 808 839 Q783 812 769.5 777 Q756 742 756 705 Q756 657 772.5 621 Q789 585 816.5 561 Q844 537 880.5 525 Q917 513 956 513 Q985 513 1017 516.5 Q1049 520 1091 543 Q1110 553 1119.5 548.5 Q1129 544 1137 530 L1223 387 Q1236 366 1231.5 352 Q1227 338 1209 326 Q1149 286 1077.5 266 Q1006 246 932 246 Q836 246 752.5 282 Q669 318 606.5 380.5 Q544 443 508 527 Q472 611 472 708 Q472 805 508.5 889.5 Q545 974 608 1036.5 Q671 1099 755.5 1135 Q840 1171 935 1171 Q1007 1171 1075 1153 Q1143 1135 1202 1097 Z M81 716 Q81 831 111 937.5 Q141 1044 195.5 1137 Q250 1230 327 1306.5 Q404 1383 497.5 1437.5 Q591 1492 698.5 1522 Q806 1552 923 1552 Q1038 1552 1144.5 1522 Q1251 1492 1344 1437.5 Q1437 1383 1513.5 1306.5 Q1590 1230 1645 1136.5 Q1700 1043 1730 935.5 Q1760 828 1760 711 Q1760 596 1730 489.5 Q1700 383 1645.5 290 Q1591 197 1514.5 120.5 Q1438 44 1344.5 -11 Q1251 -66 1143 -96 Q1035 -126 919 -126 Q804 -126 697 -96 Q590 -66 497 -11.5 Q404 43 327.5 120 Q251 197 196 290.5 Q141 384 111 491.5 Q81 599 81 716 Z M324 701 Q324 577 372.5 470 Q421 363 503 284.5 Q585 206 691.5 161.5 Q798 117 915 117 Q1002 117 1080.5 141 Q1159 165 1226 207.5 Q1293 250 1347.5 307.5 Q1402 365 1440.5 432.5 Q1479 500 1499.5 574 Q1520 648 1520 724 Q1520 810 1497 886.5 Q1474 963 1433.5 1027.5 Q1393 1092 1337.5 1143 Q1282 1194 1217 1229 Q1152 1264 1080.5 1283 Q1009 1302 937 1302 Q847 1302 766.5 1278 Q686 1254 618 1212 Q550 1170 495.5 1112.5 Q441 1055 403 988.5 Q365 922 344.5 848.5 Q324 775 324 701 Z " />
<glyph glyph-name="registered" unicode="&#xae;" horiz-adv-x="1851" d="M88 719 Q88 835 118 942 Q148 1049 202.5 1142 Q257 1235 333.5 1311 Q410 1387 503 1441.5 Q596 1496 702.5 1526 Q809 1556 925 1556 Q1041 1556 1148 1526 Q1255 1496 1348.5 1441.5 Q1442 1387 1518 1311 Q1594 1235 1648.5 1142 Q1703 1049 1733 942 Q1763 835 1763 719 Q1763 603 1733 496 Q1703 389 1648.5 296 Q1594 203 1518 127 Q1442 51 1348.5 -3.5 Q1255 -58 1148 -88 Q1041 -118 925 -118 Q810 -118 703 -88 Q596 -58 503 -3.5 Q410 51 333.5 127 Q257 203 202.5 296 Q148 389 118 496 Q88 603 88 719 Z M347 710 Q347 588 389 482 Q431 376 505 296.5 Q579 217 681.5 171.5 Q784 126 905 126 Q986 126 1061 147 Q1136 168 1201.5 205.5 Q1267 243 1321 296.5 Q1375 350 1413.5 414.5 Q1452 479 1473 554 Q1494 629 1494 710 Q1494 845 1447.5 953 Q1401 1061 1321 1136.5 Q1241 1212 1133.5 1252 Q1026 1292 905 1292 Q784 1292 681.5 1246.5 Q579 1201 505 1122.5 Q431 1044 389 937.5 Q347 831 347 710 Z M616 1101 Q616 1110 621.5 1117.5 Q627 1125 639 1125 L1031 1125 Q1089 1125 1136.5 1102 Q1184 1079 1218 1040.5 Q1252 1002 1270.5 953 Q1289 904 1289 853 Q1289 817 1277.5 782.5 Q1266 748 1245 717.5 Q1224 687 1195.5 661 Q1167 635 1133 617 L1282 340 Q1287 332 1283.5 324 Q1280 316 1269 316 L1072 316 Q1061 316 1055.5 320.5 Q1050 325 1043 339 L914 585 L856 585 L856 340 Q856 316 832 316 L639 316 Q616 316 616 340 L616 1101 Z M856 942 L856 788 L971 788 Q987 788 1001 794.5 Q1015 801 1025 811.5 Q1035 822 1040.5 836 Q1046 850 1046 864 Q1046 878 1040.5 892 Q1035 906 1025 917 Q1015 928 1001 935 Q987 942 971 942 L856 942 Z " />
<glyph glyph-name="B" unicode="B" horiz-adv-x="1354" d="M154 1383 Q154 1426 196 1426 L833 1426 Q917 1426 992 1393.5 Q1067 1361 1123 1305 Q1179 1249 1211.5 1173.5 Q1244 1098 1244 1012 Q1244 940 1222 878 Q1200 816 1158 767 Q1226 704 1267 616 Q1308 528 1308 431 Q1308 344 1274.5 266 Q1241 188 1183.5 128.5 Q1126 69 1050 34.5 Q974 0 889 0 L196 0 Q154 0 154 42 L154 1383 Z M525 606 L525 285 L782 285 Q812 285 838.5 298 Q865 311 885.5 333 Q906 355 918 384 Q930 413 930 445 Q930 474 919 502.5 Q908 531 888 554 Q868 577 841 591.5 Q814 606 782 606 L525 606 Z M525 1142 L525 864 L729 864 Q762 864 789 874.5 Q816 885 835.5 903.5 Q855 922 866 947.5 Q877 973 877 1003 Q877 1031 866.5 1056.5 Q856 1082 836.5 1101 Q817 1120 790.5 1131 Q764 1142 732 1142 L525 1142 Z " />
<glyph glyph-name="G" unicode="G" horiz-adv-x="1442" d="M842 334 Q872 335 905 339.5 Q938 344 968 353 L968 607 Q968 649 1010 649 L1278 649 Q1290 649 1304.5 641.5 Q1319 634 1319 607 L1319 143 Q1319 129 1314.5 117.5 Q1310 106 1296 98 Q1208 42 1090.5 11 Q973 -20 842 -20 Q689 -20 555 38 Q421 96 320.5 196 Q220 296 162 430 Q104 564 104 717 Q104 819 130 912.5 Q156 1006 203.5 1087 Q251 1168 318 1234.5 Q385 1301 466.5 1348 Q548 1395 642 1421 Q736 1447 838 1447 Q903 1447 960 1438.5 Q1017 1430 1068 1413 Q1119 1396 1166 1371 Q1213 1346 1257 1314 Q1289 1290 1269 1260 L1110 1032 Q1099 1016 1083.5 1015 Q1068 1014 1053 1025 Q1009 1057 957 1076.5 Q905 1096 842 1096 Q758 1096 690.5 1066.5 Q623 1037 575 986 Q527 935 501 866 Q475 797 475 717 Q475 637 502.5 566.5 Q530 496 578.5 443.5 Q627 391 694.5 361.5 Q762 332 842 334 Z " />
<glyph glyph-name="quotesinglbase" unicode="&#x201a;" horiz-adv-x="551" d="M162 255 Q162 290 177 301.5 Q192 313 212 313 L451 313 Q504 313 504 258 L504 88 Q504 2 487.5 -61 Q471 -124 447 -169 Q423 -214 395.5 -243 Q368 -272 347 -290 Q336 -300 325 -305.5 Q314 -311 297 -296 L210 -210 Q200 -202 199 -194 Q198 -186 201 -178.5 Q204 -171 210 -165.5 Q216 -160 220 -156 Q249 -130 267 -97 Q285 -64 285 -19 Q285 -15 282.5 -7 Q280 1 269 1 L208 1 Q188 1 175 13.5 Q162 26 162 52 L162 255 Z " />
<glyph glyph-name="quotedblbase" unicode="&#x201e;" horiz-adv-x="958" d="M166 255 Q166 290 181 301.5 Q196 313 216 313 L455 313 Q508 313 508 258 L508 88 Q508 2 491.5 -61 Q475 -124 451 -169 Q427 -214 399.5 -243 Q372 -272 351 -290 Q340 -300 329 -305.5 Q318 -311 301 -296 L214 -210 Q204 -202 203 -194 Q202 -186 205 -178.5 Q208 -171 214 -165.5 Q220 -160 224 -156 Q253 -130 271 -97 Q289 -64 289 -19 Q289 -15 286.5 -7 Q284 1 273 1 L212 1 Q192 1 179 13.5 Q166 26 166 52 L166 255 Z M582 255 Q582 290 597 301.5 Q612 313 632 313 L871 313 Q924 313 924 258 L924 88 Q924 2 907.5 -61 Q891 -124 867 -169 Q843 -214 815.5 -243 Q788 -272 767 -290 Q756 -300 745 -305.5 Q734 -311 717 -296 L630 -210 Q620 -202 619 -194 Q618 -186 621 -178.5 Q624 -171 630 -165.5 Q636 -160 640 -156 Q669 -130 687 -97 Q705 -64 705 -19 Q705 -15 702.5 -7 Q700 1 689 1 L628 1 Q608 1 595 13.5 Q582 26 582 52 L582 255 Z " />
<glyph glyph-name="guilsinglleft" unicode="&#x2039;" horiz-adv-x="856" d="M66 583 Q55 594 52 608 Q49 622 66 639 L568 1140 Q572 1144 578 1147.5 Q584 1151 590.5 1152 Q597 1153 604.5 1151.5 Q612 1150 619 1143 L765 1000 Q776 989 778 971.5 Q780 954 767 941 L432 611 L775 275 Q788 262 786 244.5 Q784 227 773 216 L627 73 Q620 66 612.5 64.5 Q605 63 598.5 64 Q592 65 586 68.5 Q580 72 576 76 L66 583 L66 583 Z " />
<glyph glyph-name="Ccaron" unicode="&#x10c;" horiz-adv-x="1352" d="M1036 402 Q1056 416 1073.5 418.5 Q1091 421 1104 402 L1261 171 Q1277 151 1273.5 137.5 Q1270 124 1248 109 Q1171 55 1068.5 17 Q966 -21 835 -21 Q733 -21 639 5.5 Q545 32 463 80 Q381 128 314 195 Q247 262 199 344 Q151 426 124.5 520 Q98 614 98 716 Q98 818 124.5 911.5 Q151 1005 199 1086.5 Q247 1168 314 1234.5 Q381 1301 463 1348.5 Q545 1396 639 1422 Q733 1448 835 1448 Q900 1448 958.5 1437.5 Q1017 1427 1069 1409 Q1121 1391 1167 1366.5 Q1213 1342 1252 1314 Q1267 1303 1269.5 1288.5 Q1272 1274 1265 1263 L1098 1024 Q1087 1009 1070.5 1010 Q1054 1011 1039 1023 Q991 1061 943 1078 Q895 1095 835 1095 Q755 1095 687 1065.5 Q619 1036 569.5 985 Q520 934 492 865 Q464 796 464 716 Q464 636 492 566 Q520 496 569.5 444.5 Q619 393 687 363 Q755 333 835 333 Q896 333 947 354.5 Q998 376 1036 402 Z M855 1563 Q847 1555 841.5 1552 Q836 1549 825 1549 Q814 1549 806.5 1553.5 Q799 1558 794 1563 L562 1794 Q533 1823 562 1854 L642 1931 Q657 1945 672.5 1944.5 Q688 1944 701 1931 L822 1806 L946 1929 Q959 1942 974.5 1942.5 Q990 1943 1005 1929 L1083 1854 Q1112 1823 1083 1794 L855 1563 Z " />
<glyph glyph-name="Dcaron" unicode="&#x10e;" horiz-adv-x="1484" d="M138 1383 Q138 1426 180 1426 L678 1426 Q768 1426 855.5 1400.5 Q943 1375 1022 1329 Q1101 1283 1168 1217.5 Q1235 1152 1284 1073 Q1333 994 1361 902.5 Q1389 811 1389 712 Q1389 619 1363.5 529.5 Q1338 440 1292 361 Q1246 282 1181 215.5 Q1116 149 1037 101.5 Q958 54 867 27 Q776 0 678 0 L180 0 Q138 0 138 42 L138 1383 Z M1017 712 Q1017 790 988.5 858 Q960 926 910 976.5 Q860 1027 791.5 1056.5 Q723 1086 643 1086 L509 1086 L509 340 L643 340 Q723 340 791.5 369.5 Q860 399 910 449.5 Q960 500 988.5 567.5 Q1017 635 1017 712 Z M676 1577 Q668 1569 662.5 1566 Q657 1563 646 1563 Q635 1563 627.5 1567.5 Q620 1572 615 1577 L383 1808 Q354 1837 383 1868 L463 1945 Q478 1959 493.5 1958.5 Q509 1958 522 1945 L643 1820 L767 1943 Q780 1956 795.5 1956.5 Q811 1957 826 1943 L904 1868 Q933 1837 904 1808 L676 1577 Z " />
<glyph glyph-name="Ecaron" unicode="&#x11a;" horiz-adv-x="1296" d="M154 1383 Q154 1426 196 1426 L1151 1426 Q1193 1426 1193 1383 L1193 1137 Q1193 1095 1151 1095 L525 1095 L525 858 L1000 858 Q1022 858 1034.5 847.5 Q1047 837 1047 814 L1047 616 Q1047 574 1000 574 L525 574 L525 329 L1169 329 Q1212 329 1212 287 L1212 42 Q1212 0 1169 0 L196 0 Q154 0 154 42 L154 1383 Z M736 1579 Q728 1571 722.5 1568 Q717 1565 706 1565 Q695 1565 687.5 1569.5 Q680 1574 675 1579 L443 1810 Q414 1839 443 1870 L523 1947 Q538 1961 553.5 1960.5 Q569 1960 582 1947 L703 1822 L827 1945 Q840 1958 855.5 1958.5 Q871 1959 886 1945 L964 1870 Q993 1839 964 1810 L736 1579 Z " />
<glyph glyph-name="Idotaccent" unicode="&#x130;" horiz-adv-x="684" d="M157 1383 Q157 1426 199 1426 L486 1426 Q528 1426 528 1383 L528 42 Q528 0 486 0 L199 0 Q157 0 157 42 L157 1383 Z M206 1794 Q206 1818 218.5 1835 Q231 1852 263 1852 L423 1852 Q452 1852 463.5 1836 Q475 1820 475 1794 L475 1633 Q475 1603 461.5 1592.5 Q448 1582 423 1582 L263 1582 Q238 1582 222 1592.5 Q206 1603 206 1632 L206 1794 Z " />
<glyph glyph-name="Ncaron" unicode="&#x147;" horiz-adv-x="1538" d="M514 873 L514 42 Q514 0 467 0 L199 0 Q157 0 157 42 L157 1383 Q157 1400 167.5 1413 Q178 1426 199 1426 L510 1426 Q531 1426 548 1414.5 Q565 1403 578 1383 L1059 605 L1059 1383 Q1059 1400 1069.5 1413 Q1080 1426 1102 1426 L1369 1426 Q1384 1426 1400 1414 Q1416 1402 1416 1383 L1416 42 Q1416 0 1369 0 L1088 0 Q1044 0 1019 42 L514 873 Z M838 1558 Q830 1550 824.5 1547 Q819 1544 808 1544 Q797 1544 789.5 1548.5 Q782 1553 777 1558 L545 1789 Q516 1818 545 1849 L625 1926 Q640 1940 655.5 1939.5 Q671 1939 684 1926 L805 1801 L929 1924 Q942 1937 957.5 1937.5 Q973 1938 988 1924 L1066 1849 Q1095 1818 1066 1789 L838 1558 Z " />
<glyph glyph-name="Rcaron" unicode="&#x158;" horiz-adv-x="1350" d="M156 1383 Q156 1399 166 1412.5 Q176 1426 197 1426 L834 1426 Q936 1426 1019.5 1385 Q1103 1344 1163 1277 Q1223 1210 1256 1123.5 Q1289 1037 1289 947 Q1289 890 1272 833.5 Q1255 777 1224 726 Q1193 675 1150 631 Q1107 587 1055 554 L1330 42 Q1338 28 1332 14 Q1326 0 1306 0 L960 0 Q940 0 930 8.5 Q920 17 908 40 L681 474 L526 474 L526 42 Q526 0 484 0 L197 0 Q156 0 156 42 L156 1383 Z M526 1129 L526 781 L739 781 Q777 781 808.5 796 Q840 811 862.5 835 Q885 859 897.5 890 Q910 921 910 954 Q910 985 897.5 1016.5 Q885 1048 862 1073 Q839 1098 807.5 1113.5 Q776 1129 739 1129 L526 1129 Z M683 1569 Q675 1561 669.5 1558 Q664 1555 653 1555 Q642 1555 634.5 1559.5 Q627 1564 622 1569 L390 1800 Q361 1829 390 1860 L470 1937 Q485 1951 500.5 1950.5 Q516 1950 529 1937 L650 1812 L774 1935 Q787 1948 802.5 1948.5 Q818 1949 833 1935 L911 1860 Q940 1829 911 1800 L683 1569 Z " />
<glyph glyph-name="Tcaron" unicode="&#x164;" horiz-adv-x="1279" d="M77 1383 Q77 1426 119 1426 L1161 1426 Q1203 1426 1203 1383 L1203 1140 Q1203 1097 1161 1097 L820 1097 L820 42 Q820 0 777 0 L500 0 Q458 0 458 42 L458 1097 L119 1097 Q77 1097 77 1140 L77 1383 Z M684 1570 Q676 1562 670.5 1559 Q665 1556 654 1556 Q643 1556 635.5 1560.5 Q628 1565 623 1570 L391 1801 Q362 1830 391 1861 L471 1938 Q486 1952 501.5 1951.5 Q517 1951 530 1938 L651 1813 L775 1936 Q788 1949 803.5 1949.5 Q819 1950 834 1936 L912 1861 Q941 1830 912 1801 L684 1570 Z " />
<glyph glyph-name="at" unicode="&#x40;" horiz-adv-x="1834" d="M1372 416 Q1372 380 1373 352 Q1374 324 1380 305 Q1386 286 1398 276.5 Q1410 267 1433 267 Q1462 267 1484.5 289 Q1507 311 1523.5 344.5 Q1540 378 1551.5 419.5 Q1563 461 1570 500 Q1577 539 1580.5 571 Q1584 603 1584 618 L1584 620 Q1584 770 1538.5 882.5 Q1493 995 1409 1070 Q1325 1145 1206 1182.5 Q1087 1220 941 1220 Q856 1220 771.5 1194.5 Q687 1169 609.5 1122.5 Q532 1076 465 1011 Q398 946 348.5 866 Q299 786 271 694 Q243 602 243 502 Q243 403 269 311 Q295 219 341.5 139.5 Q388 60 452 -5 Q516 -70 592.5 -116.5 Q669 -163 755 -188.5 Q841 -214 931 -214 Q986 -214 1034.5 -208.5 Q1083 -203 1127.5 -191.5 Q1172 -180 1213.5 -161.5 Q1255 -143 1296 -116 Q1311 -106 1325 -102 Q1339 -98 1349 -113 L1437 -244 Q1447 -258 1446.5 -271.5 Q1446 -285 1427 -295 Q1361 -330 1305.5 -354 Q1250 -378 1196.5 -393 Q1143 -408 1086.5 -415 Q1030 -422 961 -422 Q822 -422 699.5 -389 Q577 -356 474 -296 Q371 -236 289.5 -151.5 Q208 -67 151.5 35.5 Q95 138 65 256 Q35 374 35 502 Q35 630 68 748.5 Q101 867 161.5 970 Q222 1073 306.5 1157 Q391 1241 494 1301.5 Q597 1362 715 1395 Q833 1428 961 1428 Q1068 1428 1171 1403.5 Q1274 1379 1366 1332 Q1458 1285 1536 1216 Q1614 1147 1670.5 1057 Q1727 967 1759 857.5 Q1791 748 1791 620 L1791 616 Q1791 580 1785.5 523 Q1780 466 1765 401.5 Q1750 337 1722.5 271.5 Q1695 206 1651 153.5 Q1607 101 1543 68 Q1479 35 1391 35 Q1304 35 1243.5 70 Q1183 105 1136 169 Q1085 108 1017.5 73.5 Q950 39 870 39 Q780 39 697.5 72.5 Q615 106 551.5 166.5 Q488 227 450.5 313 Q413 399 413 504 Q413 601 448 686 Q483 771 544.5 834.5 Q606 898 689.5 935 Q773 972 870 972 Q952 972 1016.5 939.5 Q1081 907 1129 851 L1157 928 Q1163 945 1168 952.5 Q1173 960 1188 960 L1340 960 Q1372 960 1372 928 L1372 416 Z M1065 497 Q1065 533 1051.5 565 Q1038 597 1015 622 Q992 647 960.5 661.5 Q929 676 892 676 Q858 676 827.5 663 Q797 650 773.5 626.5 Q750 603 736 570 Q722 537 722 497 Q722 458 735 425 Q748 392 770.5 368 Q793 344 824.5 330.5 Q856 317 892 317 Q929 317 960.5 331.5 Q992 346 1015 371 Q1038 396 1051.5 428.5 Q1065 461 1065 497 Z " />
<glyph glyph-name="O" unicode="O" horiz-adv-x="1636" d="M88 713 Q88 814 114 908 Q140 1002 188 1083.5 Q236 1165 303 1232 Q370 1299 451.5 1347 Q533 1395 627 1421 Q721 1447 822 1447 Q923 1447 1017 1421 Q1111 1395 1192.5 1347 Q1274 1299 1341 1232 Q1408 1165 1456 1083.5 Q1504 1002 1530 908 Q1556 814 1556 713 Q1556 612 1530 518 Q1504 424 1456 343 Q1408 262 1341 195 Q1274 128 1192.5 80 Q1111 32 1017 6 Q923 -20 822 -20 Q670 -20 536.5 37.5 Q403 95 303 194.5 Q203 294 145.5 427.5 Q88 561 88 713 Z M457 713 Q457 634 484.5 564.5 Q512 495 560.5 443.5 Q609 392 676 362 Q743 332 822 332 Q901 332 968 362 Q1035 392 1084 443.5 Q1133 495 1160 564.5 Q1187 634 1187 713 Q1187 792 1160 861.5 Q1133 931 1084 983 Q1035 1035 968 1064.5 Q901 1094 822 1094 Q743 1094 676 1064.5 Q609 1035 560.5 983 Q512 931 484.5 861.5 Q457 792 457 713 Z " />
<glyph glyph-name="Q" unicode="Q" horiz-adv-x="1636" d="M88 713 Q88 814 114 908 Q140 1002 188 1083.5 Q236 1165 303 1232 Q370 1299 451.5 1347 Q533 1395 627 1421 Q721 1447 822 1447 Q923 1447 1017 1421 Q1111 1395 1192.5 1347 Q1274 1299 1341 1232 Q1408 1165 1456 1083.5 Q1504 1002 1530 908 Q1556 814 1556 713 Q1556 584 1514.5 468.5 Q1473 353 1399 259.5 Q1325 166 1223.5 99 Q1122 32 1003 2 L1003 -258 Q1003 -300 961 -300 L674 -300 Q632 -300 632 -258 L632 5 Q515 36 415 103 Q315 170 242.5 263 Q170 356 129 470.5 Q88 585 88 713 Z M457 713 Q457 634 484.5 564.5 Q512 495 560.5 443.5 Q609 392 676 362 Q743 332 822 332 Q901 332 968 362 Q1035 392 1084 443.5 Q1133 495 1160 564.5 Q1187 634 1187 713 Q1187 792 1160 861.5 Q1133 931 1084 983 Q1035 1035 968 1064.5 Q901 1094 822 1094 Q743 1094 676 1064.5 Q609 1035 560.5 983 Q512 931 484.5 861.5 Q457 792 457 713 Z " />
<glyph glyph-name="a" unicode="a" horiz-adv-x="1484" d="M1372 43 Q1372 0 1329 0 L1110 0 Q1095 0 1083.5 10 Q1072 20 1063.5 34.5 Q1055 49 1049 64.5 Q1043 80 1039 91 L1026 125 Q960 56 876 18 Q792 -20 695 -20 Q573 -20 462 25 Q351 70 265.5 152.5 Q180 235 129.5 351 Q79 467 79 608 Q79 695 100.5 775.5 Q122 856 161.5 926 Q201 996 256.5 1053.5 Q312 1111 380.5 1152 Q449 1193 528.5 1215.5 Q608 1238 695 1238 Q806 1238 893 1194.5 Q980 1151 1044 1076 L1082 1182 Q1090 1205 1097 1215 Q1104 1225 1125 1225 L1329 1225 Q1372 1225 1372 1182 L1372 43 Z M1005 610 Q1005 671 982.5 726 Q960 781 920.5 822.5 Q881 864 827.5 888.5 Q774 913 712 913 Q655 913 603 891 Q551 869 511.5 829 Q472 789 448.5 733 Q425 677 425 610 Q425 545 447 489.5 Q469 434 507 393.5 Q545 353 597.5 330 Q650 307 712 307 Q774 307 827.5 331.5 Q881 356 920.5 397 Q960 438 982.5 493 Q1005 548 1005 610 Z " />
<glyph glyph-name="b" unicode="b" horiz-adv-x="1459" d="M115 1539 Q115 1561 127 1571.5 Q139 1582 160 1582 L439 1582 Q482 1582 482 1539 L482 1120 Q539 1175 613 1206 Q687 1237 780 1237 Q913 1237 1023.5 1187.5 Q1134 1138 1212.5 1052.5 Q1291 967 1334.5 852.5 Q1378 738 1378 608 Q1378 467 1330.5 351 Q1283 235 1201 152.5 Q1119 70 1010.5 24.5 Q902 -21 781 -21 Q689 -21 611.5 16 Q534 53 474 118 L464 91 Q460 80 454 64.5 Q448 49 439.5 34.5 Q431 20 419.5 10 Q408 0 393 0 L160 0 Q139 0 127 11 Q115 22 115 43 L115 1539 Z M454 612 Q454 564 473 510 Q492 456 529 411 Q566 366 619.5 336.5 Q673 307 742 307 Q814 307 868.5 331 Q923 355 960.5 396 Q998 437 1017 493 Q1036 549 1036 612 Q1036 675 1015 729.5 Q994 784 955.5 824.5 Q917 865 862.5 888.5 Q808 912 740 912 Q672 912 619 883.5 Q566 855 529 810.5 Q492 766 473 713 Q454 660 454 612 Z " />
<glyph glyph-name="d" unicode="d" horiz-adv-x="1482" d="M1342 43 Q1342 0 1299 0 L1068 0 Q1053 0 1041.5 10 Q1030 20 1021.5 34.5 Q1013 49 1007 64.5 Q1001 80 997 91 L985 122 Q923 56 844.5 18 Q766 -20 673 -20 Q551 -20 443 25 Q335 70 253.5 152.5 Q172 235 124.5 351 Q77 467 77 608 Q77 738 120 852.5 Q163 967 241.5 1052.5 Q320 1138 429.5 1187.5 Q539 1237 673 1237 Q767 1237 841.5 1205.5 Q916 1174 975 1119 L975 1539 Q975 1582 1018 1582 L1299 1582 Q1342 1582 1342 1539 L1342 43 Z M1002 610 Q1002 674 978 730 Q954 786 912.5 827 Q871 868 815.5 891.5 Q760 915 698 915 Q637 915 586 890.5 Q535 866 498.5 824 Q462 782 441.5 726.5 Q421 671 421 610 Q421 547 441.5 491.5 Q462 436 498.5 395 Q535 354 586 330.5 Q637 307 698 307 Q760 307 815.5 330 Q871 353 912.5 394 Q954 435 978 490 Q1002 545 1002 610 Z " />
<glyph glyph-name="e" unicode="e" horiz-adv-x="1359" d="M991 393 Q1001 401 1017 402 Q1033 403 1044 388 L1167 218 Q1182 198 1182 182.5 Q1182 167 1165 153 Q1105 100 1046 66 Q987 32 930 13 Q873 -6 816.5 -13 Q760 -20 705 -20 Q622 -20 543 2.5 Q464 25 394.5 66 Q325 107 266.5 164 Q208 221 166 291 Q124 361 100.5 441 Q77 521 77 608 Q77 738 122 852 Q167 966 248.5 1051.5 Q330 1137 444 1186.5 Q558 1236 695 1236 Q752 1236 816.5 1221 Q881 1206 944 1174 Q1007 1142 1065 1092.5 Q1123 1043 1167 974 Q1211 905 1237.5 816 Q1264 727 1264 616 Q1264 577 1256.5 553 Q1249 529 1231.5 516.5 Q1214 504 1187 499.5 Q1160 495 1121 495 L429 495 Q442 446 468.5 407 Q495 368 531 340.5 Q567 313 611 298 Q655 283 703 283 Q772 283 817 294 Q862 305 893.5 321.5 Q925 338 947 357 Q969 376 991 393 Z M684 946 Q643 946 607 932 Q571 918 541 894 Q511 870 487.5 838 Q464 806 448 769 L933 769 Q895 854 831 900 Q767 946 684 946 Z " />
<glyph glyph-name="f" unicode="f" horiz-adv-x="831" d="M228 763 L95 763 Q79 763 68.5 772.5 Q58 782 58 801 L58 1054 Q58 1073 69 1082.5 Q80 1092 95 1092 L228 1092 L228 1206 Q228 1291 261 1368 Q294 1445 357 1503 Q420 1561 511.5 1595 Q603 1629 720 1629 Q758 1629 769.5 1617.5 Q781 1606 781 1573 L781 1351 Q781 1319 766 1308.5 Q751 1298 723 1298 Q692 1298 667.5 1292 Q643 1286 626 1270.5 Q609 1255 600 1227.5 Q591 1200 591 1157 L591 1092 L773 1092 Q810 1092 810 1054 L810 801 Q810 763 773 763 L591 763 L591 41 Q591 0 550 0 L270 0 Q228 0 228 41 L228 763 Z " />
<glyph glyph-name="g" unicode="g" horiz-adv-x="1475" d="M1360 199 Q1360 28 1306.5 -96 Q1253 -220 1164.5 -300.5 Q1076 -381 962.5 -418.5 Q849 -456 729 -454 Q664 -453 600 -442 Q536 -431 476 -409.5 Q416 -388 361.5 -356 Q307 -324 262 -280 Q243 -262 247 -248.5 Q251 -235 262 -218 L372 -57 Q389 -32 410 -32 Q431 -32 450 -48 Q498 -89 562 -111 Q626 -133 719 -133 Q773 -133 826 -115.5 Q879 -98 921 -64.5 Q963 -31 988.5 17 Q1014 65 1014 126 L1014 152 Q950 87 870 49.5 Q790 12 698 12 Q619 12 544.5 32 Q470 52 404 89 Q338 126 282.5 179.5 Q227 233 187.5 300 Q148 367 126 446 Q104 525 104 615 Q104 700 126 779.5 Q148 859 187.5 928.5 Q227 998 282.5 1055.5 Q338 1113 404 1154.5 Q470 1196 544.5 1218.5 Q619 1241 698 1241 Q807 1241 894 1197 Q981 1153 1046 1079 L1078 1168 Q1088 1198 1097 1211 Q1106 1224 1132 1224 L1314 1224 Q1335 1224 1347.5 1214.5 Q1360 1205 1360 1179 L1360 199 Z M1034 611 Q1034 674 1011 729.5 Q988 785 948 826.5 Q908 868 852.5 892 Q797 916 733 916 Q668 916 616.5 891.5 Q565 867 529 825 Q493 783 474 727.5 Q455 672 455 609 Q455 546 475 491.5 Q495 437 532 396.5 Q569 356 622 333 Q675 310 740 310 Q800 310 853.5 333 Q907 356 947 396.5 Q987 437 1010.5 492 Q1034 547 1034 611 Z " />
<glyph glyph-name="h" unicode="h" horiz-adv-x="1348" d="M877 641 Q877 702 862.5 750 Q848 798 822 831 Q796 864 760 881 Q724 898 682 898 Q640 898 603.5 883 Q567 868 540.5 838 Q514 808 498.5 763.5 Q483 719 483 661 L483 45 Q483 25 471.5 12.5 Q460 0 438 0 L160 0 Q115 0 115 45 L115 1536 Q115 1559 127.5 1570 Q140 1581 160 1581 L438 1581 Q458 1581 470.5 1568.5 Q483 1556 483 1536 L483 1098 Q515 1128 550 1153.5 Q585 1179 623 1198 Q661 1217 701.5 1228 Q742 1239 785 1239 Q926 1239 1015.5 1190 Q1105 1141 1156 1055.5 Q1207 970 1226 854 Q1245 738 1245 604 L1245 45 Q1245 25 1233.5 12.5 Q1222 0 1200 0 L922 0 Q877 0 877 45 L877 641 Z " />
<glyph glyph-name="i" unicode="i" horiz-adv-x="597" d="M114 1183 Q114 1204 127.5 1214.5 Q141 1225 156 1225 L441 1225 Q459 1225 471 1213.5 Q483 1202 483 1183 L483 42 Q483 0 441 0 L156 0 Q114 0 114 42 L114 1183 Z M113 1625 Q113 1659 130.5 1682 Q148 1705 192 1705 L412 1705 Q451 1705 467.5 1683.5 Q484 1662 484 1625 L484 1443 Q484 1402 465.5 1387.5 Q447 1373 412 1373 L192 1373 Q157 1373 135 1387 Q113 1401 113 1442 L113 1625 Z " />
<glyph glyph-name="j" unicode="j" horiz-adv-x="603" d="M117 1180 Q117 1225 162 1225 L441 1225 Q485 1225 485 1180 L485 17 Q485 -75 451.5 -151.5 Q418 -228 356 -283 Q294 -338 206 -368.5 Q118 -399 9 -399 Q-21 -399 -41 -387 Q-61 -375 -61 -357 L-61 -159 Q-61 -152 -60 -142.5 Q-59 -133 -54 -125.5 Q-49 -118 -38 -112.5 Q-27 -107 -7 -107 Q30 -107 54 -97.5 Q78 -88 92 -69 Q106 -50 111.5 -20.5 Q117 9 117 48 L117 1180 Z M112 1625 Q112 1659 129.5 1682 Q147 1705 191 1705 L411 1705 Q450 1705 466.5 1683.5 Q483 1662 483 1625 L483 1443 Q483 1402 464.5 1387.5 Q446 1373 411 1373 L191 1373 Q156 1373 134 1387 Q112 1401 112 1442 L112 1625 Z " />
<glyph glyph-name="k" unicode="k" horiz-adv-x="1356" d="M821 728 L1325 73 Q1335 59 1337 46 Q1339 33 1334 22.5 Q1329 12 1318.5 6 Q1308 0 1295 0 L977 0 Q956 0 943.5 9.5 Q931 19 915 42 L593 491 L481 375 L481 41 Q481 0 440 0 L156 0 Q115 0 115 41 L115 1541 Q115 1582 156 1582 L440 1582 Q481 1582 481 1541 L481 806 L827 1194 Q847 1216 863 1220.5 Q879 1225 902 1225 L1186 1225 Q1204 1225 1216 1217.5 Q1228 1210 1233.5 1199 Q1239 1188 1237.5 1176.5 Q1236 1165 1227 1156 L821 728 Z " />
<glyph glyph-name="l" unicode="l" horiz-adv-x="595" d="M115 1536 Q115 1559 128.5 1570 Q142 1581 162 1581 L434 1581 Q454 1581 467 1568.5 Q480 1556 480 1536 L480 45 Q480 25 468 12.5 Q456 0 434 0 L162 0 Q140 0 127.5 11 Q115 22 115 45 L115 1536 Z " />
<glyph glyph-name="m" unicode="m" horiz-adv-x="2045" d="M848 687 Q848 734 834.5 773 Q821 812 796.5 839.5 Q772 867 738 882.5 Q704 898 664 898 Q624 898 590.5 883 Q557 868 533 840.5 Q509 813 496 774 Q483 735 483 687 L483 45 Q484 22 471.5 11 Q459 0 437 0 L160 0 Q115 0 115 45 L115 1182 Q115 1227 160 1227 L335 1227 Q358 1227 378 1210.5 Q398 1194 404 1172 L431 1064 Q498 1159 584.5 1199 Q671 1239 774 1239 Q815 1239 860.5 1230.5 Q906 1222 950.5 1201 Q995 1180 1036.5 1144 Q1078 1108 1110 1054 Q1183 1144 1278.5 1191.5 Q1374 1239 1480 1239 Q1594 1239 1678 1195 Q1762 1151 1817.5 1075 Q1873 999 1900.5 898 Q1928 797 1928 683 L1928 44 Q1928 0 1883 0 L1612 0 Q1568 0 1568 44 L1568 686 Q1568 733 1556.5 772 Q1545 811 1522.5 838.5 Q1500 866 1467.5 881.5 Q1435 897 1394 897 Q1353 897 1318.5 882 Q1284 867 1259 839 Q1234 811 1220.5 772.5 Q1207 734 1207 686 L1208 44 Q1208 0 1164 0 L892 0 Q848 0 848 44 L848 687 Z " />
<glyph glyph-name="n" unicode="n" horiz-adv-x="1386" d="M913 675 Q913 722 898.5 762.5 Q884 803 857 833 Q830 863 791.5 880 Q753 897 704 897 Q655 897 614.5 880 Q574 863 545 833 Q516 803 500 762.5 Q484 722 484 675 L484 55 Q484 44 478 34 Q472 24 462 16.5 Q452 9 440.5 4.5 Q429 0 418 0 L161 0 Q115 0 115 45 L115 1180 Q115 1225 161 1225 L339 1225 Q362 1225 382 1208.5 Q402 1192 408 1170 L435 1060 Q472 1108 516.5 1142 Q561 1176 610 1197.5 Q659 1219 711 1229 Q763 1239 815 1239 Q855 1239 905 1228.5 Q955 1218 1005.5 1193.5 Q1056 1169 1104 1129.5 Q1152 1090 1189.5 1031.5 Q1227 973 1249.5 894 Q1272 815 1272 713 L1272 44 Q1272 0 1228 0 L959 0 Q913 0 913 44 L913 675 Z " />
<glyph glyph-name="o" unicode="o" horiz-adv-x="1413" d="M77 609 Q77 696 99.5 776.5 Q122 857 163 926.5 Q204 996 262 1053.5 Q320 1111 390 1151.5 Q460 1192 541 1214.5 Q622 1237 709 1237 Q840 1237 955.5 1187.5 Q1071 1138 1157 1052.5 Q1243 967 1292.5 853 Q1342 739 1342 609 Q1342 479 1292 364.5 Q1242 250 1156 164.5 Q1070 79 955 29.5 Q840 -20 709 -20 Q578 -20 463 29.5 Q348 79 262 164 Q176 249 126.5 363.5 Q77 478 77 609 Z M429 609 Q429 547 449.5 492 Q470 437 506.5 395 Q543 353 594.5 328.5 Q646 304 709 304 Q772 304 823 329 Q874 354 911 396 Q948 438 968 493 Q988 548 988 609 Q988 670 968 725 Q948 780 911.5 822 Q875 864 824 888.5 Q773 913 710 913 Q647 913 595.5 888.5 Q544 864 507 822.5 Q470 781 449.5 725.5 Q429 670 429 609 Z " />
<glyph glyph-name="p" unicode="p" horiz-adv-x="1465" d="M115 1182 Q115 1203 127 1214 Q139 1225 160 1225 L363 1225 Q378 1225 387.5 1217 Q397 1209 403 1197 Q409 1185 412.5 1171 Q416 1157 419 1146 L440 1064 Q503 1142 592 1190 Q681 1238 797 1238 Q918 1238 1024 1193.5 Q1130 1149 1209 1067.5 Q1288 986 1333 870.5 Q1378 755 1378 614 Q1378 484 1336.5 369.5 Q1295 255 1218 169.5 Q1141 84 1032.5 34.5 Q924 -15 791 -15 Q698 -15 618.5 21 Q539 57 482 111 L482 -331 Q482 -374 439 -374 L160 -374 Q139 -374 127 -363.5 Q115 -353 115 -331 L115 1182 Z M454 610 Q454 553 473 499 Q492 445 529 403 Q566 361 619 335.5 Q672 310 740 310 Q808 310 862.5 333 Q917 356 955.5 396.5 Q994 437 1015 492 Q1036 547 1036 610 Q1036 673 1017 729 Q998 785 960.5 826 Q923 867 868.5 891 Q814 915 742 915 Q679 915 626 888.5 Q573 862 535 819 Q497 776 475.5 721.5 Q454 667 454 610 Z " />
<glyph glyph-name="q" unicode="q" horiz-adv-x="1465" d="M1340 -331 Q1340 -353 1328 -363.5 Q1316 -374 1295 -374 L1016 -374 Q973 -374 973 -331 L973 111 Q916 57 836.5 21 Q757 -15 664 -15 Q530 -15 422 34.5 Q314 84 237 169.5 Q160 255 118.5 369.5 Q77 484 77 614 Q77 755 122 870.5 Q167 986 246 1067.5 Q325 1149 430.5 1193.5 Q536 1238 658 1238 Q774 1238 863 1190 Q952 1142 1015 1064 L1036 1146 Q1039 1157 1042.5 1171 Q1046 1185 1052 1197 Q1058 1209 1067.5 1217 Q1077 1225 1092 1225 L1295 1225 Q1316 1225 1328 1214 Q1340 1203 1340 1182 L1340 -331 Z M1001 610 Q1001 667 979.5 721.5 Q958 776 920 819 Q882 862 829 888.5 Q776 915 713 915 Q641 915 586.5 891 Q532 867 494.5 826 Q457 785 438 729 Q419 673 419 610 Q419 547 440 492 Q461 437 499.5 396.5 Q538 356 592.5 333 Q647 310 715 310 Q783 310 836 335.5 Q889 361 926 403 Q963 445 982 499 Q1001 553 1001 610 Z " />
<glyph glyph-name="r" unicode="r" horiz-adv-x="1104" d="M115 1181 Q115 1225 158 1225 L322 1225 Q344 1225 361.5 1218 Q379 1211 394 1175 L436 1068 Q466 1101 494.5 1131.5 Q523 1162 556.5 1185.5 Q590 1209 632.5 1223 Q675 1237 733 1237 Q793 1237 849 1217.5 Q905 1198 950.5 1172 Q996 1146 1028.5 1121 Q1061 1096 1073 1085 Q1098 1063 1098 1045.5 Q1098 1028 1084 1008 L959 831 Q946 812 930.5 811.5 Q915 811 898 826 Q885 837 866.5 853 Q848 869 823 883.5 Q798 898 767 908 Q736 918 699 918 Q655 918 615.5 904.5 Q576 891 547 864 Q518 837 501 796.5 Q484 756 484 703 L484 43 Q484 0 440 0 L158 0 Q115 0 115 43 L115 1181 Z " />
<glyph glyph-name="s" unicode="s" horiz-adv-x="1112" d="M95 180 Q87 189 81 199.5 Q75 210 73 221 Q71 232 75 243.5 Q79 255 92 268 L227 400 Q241 414 257 411.5 Q273 409 290 394 Q314 373 341 353 Q368 333 398 318 Q428 303 460 294 Q492 285 525 285 Q563 285 588 291.5 Q613 298 628 309.5 Q643 321 649 336.5 Q655 352 655 370 Q655 391 647.5 405.5 Q640 420 619 432.5 Q598 445 561 458 Q524 471 466 488 Q374 515 307 552 Q240 589 196.5 639 Q153 689 132 753.5 Q111 818 111 900 Q111 974 141.5 1037 Q172 1100 230.5 1145.5 Q289 1191 374.5 1217 Q460 1243 569 1243 Q650 1243 710.5 1226 Q771 1209 817 1183 Q863 1157 897.5 1126.5 Q932 1096 961 1069 Q981 1051 982.5 1034 Q984 1017 960 996 L813 868 Q793 851 780 853 Q767 855 750 869 Q733 883 715.5 897 Q698 911 678 921.5 Q658 932 633.5 938.5 Q609 945 578 945 Q521 945 493.5 927 Q466 909 466 886 Q466 863 478.5 849.5 Q491 836 520.5 824.5 Q550 813 597.5 799.5 Q645 786 716 763 Q812 731 872 686.5 Q932 642 965 590 Q998 538 1010 482 Q1022 426 1022 371 Q1022 276 982.5 202.5 Q943 129 877.5 78.5 Q812 28 728 1.5 Q644 -25 554 -25 Q493 -25 432 -16 Q371 -7 312 16.5 Q253 40 198 79.5 Q143 119 95 180 Z " />
<glyph glyph-name="t" unicode="t" horiz-adv-x="824" d="M560 884 L560 42 Q560 0 517 0 L230 0 Q188 0 188 42 L188 884 L54 884 Q15 884 15 923 L15 1182 Q15 1199 25 1209.5 Q35 1220 54 1220 L188 1220 L188 1417 Q188 1438 197 1451 Q206 1464 235 1474 L486 1557 Q515 1567 537.5 1553 Q560 1539 560 1501 L560 1220 L721 1220 Q740 1220 749.5 1208 Q759 1196 759 1182 L759 923 Q759 884 721 884 L560 884 Z " />
<glyph glyph-name="u" unicode="u" horiz-adv-x="1386" d="M903 1180 Q902 1203 914.5 1214 Q927 1225 949 1225 L1227 1225 Q1272 1225 1272 1180 L1272 45 Q1272 0 1227 0 L1049 0 Q1026 0 1006 16.5 Q986 33 980 55 L952 162 Q914 111 868.5 76 Q823 41 773.5 20 Q724 -1 672 -10.5 Q620 -20 568 -20 Q527 -20 478 -11 Q429 -2 378.5 20.5 Q328 43 280.5 81 Q233 119 196.5 177.5 Q160 236 137.5 317 Q115 398 115 506 L115 1181 Q115 1225 159 1225 L431 1225 Q475 1225 475 1181 L475 532 Q475 490 490.5 452 Q506 414 534.5 385 Q563 356 603.5 339 Q644 322 695 322 Q719 322 754.5 331 Q790 340 823 364 Q856 388 879.5 429 Q903 470 903 534 L903 1180 Z " />
<glyph glyph-name="v" unicode="v" horiz-adv-x="1225" d="M756 42 Q738 0 698 0 L552 0 Q510 0 494 42 L27 1151 Q13 1187 25 1206 Q37 1225 66 1225 L341 1225 Q382 1225 398 1180 L632 515 L856 1183 Q863 1205 878 1215 Q893 1225 913 1225 L1205 1225 Q1232 1225 1237 1208.5 Q1242 1192 1228 1160 L756 42 Z " />
<glyph glyph-name="w" unicode="w" horiz-adv-x="1849" d="M1073 880 L1230 515 L1464 1183 Q1471 1205 1486 1215 Q1501 1225 1521 1225 L1793 1225 Q1820 1225 1825 1208.5 Q1830 1192 1816 1160 L1364 42 Q1346 0 1306 0 L1160 0 Q1118 0 1102 42 L921 498 L740 42 Q723 0 682 0 L536 0 Q494 0 478 42 L31 1151 Q17 1187 29 1206 Q41 1225 70 1225 L345 1225 Q386 1225 402 1180 L616 515 L830 1183 Q837 1205 852 1215 Q867 1225 887 1225 L1159 1225 Q1186 1225 1191 1208.5 Q1196 1192 1182 1160 L1073 880 Z " />
<glyph glyph-name="y" unicode="y" horiz-adv-x="1361" d="M692 -441 Q676 -481 633 -481 L395 -481 Q376 -481 361.5 -476.5 Q347 -472 338.5 -462 Q330 -452 329 -436 Q328 -420 337 -397 L494 4 L33 1151 Q25 1171 26 1185 Q27 1199 34 1208 Q41 1217 52 1221 Q63 1225 75 1225 L343 1225 Q363 1225 377.5 1213 Q392 1201 400 1180 L674 401 L943 1183 Q956 1225 1000 1225 L1287 1225 Q1306 1225 1316 1219 Q1326 1213 1329.5 1203 Q1333 1193 1331 1181.5 Q1329 1170 1325 1160 L692 -441 Z " />
<glyph glyph-name="z" unicode="z" horiz-adv-x="1152" d="M1030 1225 Q1047 1225 1056 1214.5 Q1065 1204 1065 1187 L1065 978 Q1065 957 1059.5 948 Q1054 939 1041 923 L521 310 L1040 310 Q1057 310 1066 298 Q1075 286 1075 275 L1075 35 Q1075 22 1066 10.5 Q1057 -1 1040 -1 L110 -1 Q75 -1 75 35 L75 221 Q75 238 78 246.5 Q81 255 87 262 L643 912 L140 912 Q123 912 114 924 Q105 936 105 947 L105 1187 Q105 1200 114 1212.5 Q123 1225 140 1225 L1030 1225 Z " />
<glyph glyph-name="c" unicode="c" horiz-adv-x="1185" d="M920 392 Q930 399 946.5 400 Q963 401 971 388 L1108 187 Q1120 167 1119 154 Q1118 141 1101 126 Q1068 97 1022.5 70 Q977 43 924.5 22.5 Q872 2 816.5 -10 Q761 -22 707 -22 Q576 -21 461.5 26 Q347 73 261.5 157 Q176 241 126.5 357 Q77 473 77 611 Q77 697 99 777.5 Q121 858 161.5 927.5 Q202 997 259 1054 Q316 1111 385 1152 Q454 1193 534 1215.5 Q614 1238 700 1238 Q767 1238 822.5 1228.5 Q878 1219 926 1201.5 Q974 1184 1016.5 1158 Q1059 1132 1101 1099 Q1113 1089 1116.5 1078.5 Q1120 1068 1112 1055 L975 843 Q967 832 953 831.5 Q939 831 928 839 Q866 882 812.5 899 Q759 916 702 916 Q647 916 597 893.5 Q547 871 509 830.5 Q471 790 448.5 734 Q426 678 426 610 Q426 542 447.5 486.5 Q469 431 506 391 Q543 351 593.5 329.5 Q644 308 703 308 Q737 308 768 316 Q799 324 827 336.5 Q855 349 878.5 364 Q902 379 920 392 Z " />
<glyph glyph-name="Obreve" unicode="&#x14e;" horiz-adv-x="1636" d="M88 713 Q88 814 114 908 Q140 1002 188 1083.5 Q236 1165 303 1232 Q370 1299 451.5 1347 Q533 1395 627 1421 Q721 1447 822 1447 Q923 1447 1017 1421 Q1111 1395 1192.5 1347 Q1274 1299 1341 1232 Q1408 1165 1456 1083.5 Q1504 1002 1530 908 Q1556 814 1556 713 Q1556 612 1530 518 Q1504 424 1456 343 Q1408 262 1341 195 Q1274 128 1192.5 80 Q1111 32 1017 6 Q923 -20 822 -20 Q670 -20 536.5 37.5 Q403 95 303 194.5 Q203 294 145.5 427.5 Q88 561 88 713 Z M457 713 Q457 634 484.5 564.5 Q512 495 560.5 443.5 Q609 392 676 362 Q743 332 822 332 Q901 332 968 362 Q1035 392 1084 443.5 Q1133 495 1160 564.5 Q1187 634 1187 713 Q1187 792 1160 861.5 Q1133 931 1084 983 Q1035 1035 968 1064.5 Q901 1094 822 1094 Q743 1094 676 1064.5 Q609 1035 560.5 983 Q512 931 484.5 861.5 Q457 792 457 713 Z M837 1571 Q781 1571 732.5 1591.5 Q684 1612 648.5 1645.5 Q613 1679 593 1722.5 Q573 1766 573 1812 Q573 1828 583 1838 Q593 1848 608 1848 L748 1848 Q759 1848 764.5 1841.5 Q770 1835 770 1826 Q770 1805 787 1787 Q804 1769 841 1769 Q873 1769 891 1787.5 Q909 1806 909 1826 Q909 1835 914 1841.5 Q919 1848 929 1848 L1069 1848 Q1086 1848 1096 1838 Q1106 1828 1106 1812 Q1106 1765 1085 1721.5 Q1064 1678 1028 1644.5 Q992 1611 943 1591 Q894 1571 837 1571 Z " />
<glyph glyph-name="Ocircumflex" unicode="&#xd4;" horiz-adv-x="1636" d="M88 713 Q88 814 114 908 Q140 1002 188 1083.5 Q236 1165 303 1232 Q370 1299 451.5 1347 Q533 1395 627 1421 Q721 1447 822 1447 Q923 1447 1017 1421 Q1111 1395 1192.5 1347 Q1274 1299 1341 1232 Q1408 1165 1456 1083.5 Q1504 1002 1530 908 Q1556 814 1556 713 Q1556 612 1530 518 Q1504 424 1456 343 Q1408 262 1341 195 Q1274 128 1192.5 80 Q1111 32 1017 6 Q923 -20 822 -20 Q670 -20 536.5 37.5 Q403 95 303 194.5 Q203 294 145.5 427.5 Q88 561 88 713 Z M457 713 Q457 634 484.5 564.5 Q512 495 560.5 443.5 Q609 392 676 362 Q743 332 822 332 Q901 332 968 362 Q1035 392 1084 443.5 Q1133 495 1160 564.5 Q1187 634 1187 713 Q1187 792 1160 861.5 Q1133 931 1084 983 Q1035 1035 968 1064.5 Q901 1094 822 1094 Q743 1094 676 1064.5 Q609 1035 560.5 983 Q512 931 484.5 861.5 Q457 792 457 713 Z M1089 1707 Q1103 1693 1104 1677.5 Q1105 1662 1089 1647 L1011 1572 Q996 1558 980.5 1558.5 Q965 1559 952 1572 L828 1695 L707 1570 Q694 1557 678.5 1556.5 Q663 1556 648 1570 L568 1647 Q552 1662 553 1677.5 Q554 1693 568 1707 L800 1938 Q805 1943 812.5 1947.5 Q820 1952 831 1952 Q842 1952 847.5 1949 Q853 1946 861 1938 L1089 1707 Z " />
<glyph glyph-name="Odieresis" unicode="&#xd6;" horiz-adv-x="1636" d="M88 713 Q88 814 114 908 Q140 1002 188 1083.5 Q236 1165 303 1232 Q370 1299 451.5 1347 Q533 1395 627 1421 Q721 1447 822 1447 Q923 1447 1017 1421 Q1111 1395 1192.5 1347 Q1274 1299 1341 1232 Q1408 1165 1456 1083.5 Q1504 1002 1530 908 Q1556 814 1556 713 Q1556 612 1530 518 Q1504 424 1456 343 Q1408 262 1341 195 Q1274 128 1192.5 80 Q1111 32 1017 6 Q923 -20 822 -20 Q670 -20 536.5 37.5 Q403 95 303 194.5 Q203 294 145.5 427.5 Q88 561 88 713 Z M457 713 Q457 634 484.5 564.5 Q512 495 560.5 443.5 Q609 392 676 362 Q743 332 822 332 Q901 332 968 362 Q1035 392 1084 443.5 Q1133 495 1160 564.5 Q1187 634 1187 713 Q1187 792 1160 861.5 Q1133 931 1084 983 Q1035 1035 968 1064.5 Q901 1094 822 1094 Q743 1094 676 1064.5 Q609 1035 560.5 983 Q512 931 484.5 861.5 Q457 792 457 713 Z M484 1797 Q484 1821 496.5 1838 Q509 1855 541 1855 L701 1855 Q730 1855 741.5 1839 Q753 1823 753 1797 L753 1636 Q753 1606 739.5 1595.5 Q726 1585 701 1585 L541 1585 Q516 1585 500 1595.5 Q484 1606 484 1635 L484 1797 Z M902 1797 Q902 1821 914.5 1838 Q927 1855 959 1855 L1119 1855 Q1148 1855 1159.5 1839 Q1171 1823 1171 1797 L1171 1636 Q1171 1606 1157.5 1595.5 Q1144 1585 1119 1585 L959 1585 Q934 1585 918 1595.5 Q902 1606 902 1635 L902 1797 Z " />
<glyph glyph-name="Ohungarumlaut" unicode="&#x150;" horiz-adv-x="1636" d="M88 713 Q88 814 114 908 Q140 1002 188 1083.5 Q236 1165 303 1232 Q370 1299 451.5 1347 Q533 1395 627 1421 Q721 1447 822 1447 Q923 1447 1017 1421 Q1111 1395 1192.5 1347 Q1274 1299 1341 1232 Q1408 1165 1456 1083.5 Q1504 1002 1530 908 Q1556 814 1556 713 Q1556 612 1530 518 Q1504 424 1456 343 Q1408 262 1341 195 Q1274 128 1192.5 80 Q1111 32 1017 6 Q923 -20 822 -20 Q670 -20 536.5 37.5 Q403 95 303 194.5 Q203 294 145.5 427.5 Q88 561 88 713 Z M457 713 Q457 634 484.5 564.5 Q512 495 560.5 443.5 Q609 392 676 362 Q743 332 822 332 Q901 332 968 362 Q1035 392 1084 443.5 Q1133 495 1160 564.5 Q1187 634 1187 713 Q1187 792 1160 861.5 Q1133 931 1084 983 Q1035 1035 968 1064.5 Q901 1094 822 1094 Q743 1094 676 1064.5 Q609 1035 560.5 983 Q512 931 484.5 861.5 Q457 792 457 713 Z M743 1604 Q730 1575 718.5 1568 Q707 1561 684 1561 L491 1561 Q484 1561 476 1563.5 Q468 1566 462 1571.5 Q456 1577 454.5 1586 Q453 1595 460 1609 L559 1817 Q570 1840 581.5 1850 Q593 1860 618 1860 L806 1860 Q824 1860 832.5 1843.5 Q841 1827 833 1808 L743 1604 Z M1197 1604 Q1184 1575 1172.5 1568 Q1161 1561 1138 1561 L945 1561 Q938 1561 930 1563.5 Q922 1566 916.5 1571.5 Q911 1577 909.5 1586 Q908 1595 914 1609 L1010 1817 Q1021 1841 1032.5 1850.5 Q1044 1860 1069 1860 L1260 1860 Q1278 1860 1286.5 1843.5 Q1295 1827 1287 1808 L1197 1604 Z " />
<glyph glyph-name="aring" unicode="&#xe5;" horiz-adv-x="1484" d="M1372 43 Q1372 0 1329 0 L1110 0 Q1095 0 1083.5 10 Q1072 20 1063.5 34.5 Q1055 49 1049 64.5 Q1043 80 1039 91 L1026 125 Q960 56 876 18 Q792 -20 695 -20 Q573 -20 462 25 Q351 70 265.5 152.5 Q180 235 129.5 351 Q79 467 79 608 Q79 695 100.5 775.5 Q122 856 161.5 926 Q201 996 256.5 1053.5 Q312 1111 380.5 1152 Q449 1193 528.5 1215.5 Q608 1238 695 1238 Q806 1238 893 1194.5 Q980 1151 1044 1076 L1082 1182 Q1090 1205 1097 1215 Q1104 1225 1125 1225 L1329 1225 Q1372 1225 1372 1182 L1372 43 Z M1005 610 Q1005 671 982.5 726 Q960 781 920.5 822.5 Q881 864 827.5 888.5 Q774 913 712 913 Q655 913 603 891 Q551 869 511.5 829 Q472 789 448.5 733 Q425 677 425 610 Q425 545 447 489.5 Q469 434 507 393.5 Q545 353 597.5 330 Q650 307 712 307 Q774 307 827.5 331.5 Q881 356 920.5 397 Q960 438 982.5 493 Q1005 548 1005 610 Z M704 1773 Q746 1773 782.5 1757 Q819 1741 847 1713.5 Q875 1686 891 1649.5 Q907 1613 907 1571 Q907 1529 891 1492 Q875 1455 847 1428 Q819 1401 782.5 1385.5 Q746 1370 704 1370 Q662 1370 625.5 1385.5 Q589 1401 561.5 1428 Q534 1455 518.5 1492 Q503 1529 503 1571 Q503 1613 518.5 1649.5 Q534 1686 561.5 1713.5 Q589 1741 625.5 1757 Q662 1773 704 1773 Z M705 1629 Q680 1629 664.5 1612.5 Q649 1596 649 1572 Q649 1547 664.5 1531.5 Q680 1516 705 1516 Q730 1516 746.5 1531.5 Q763 1547 763 1572 Q763 1596 746.5 1612.5 Q730 1629 705 1629 Z " />
<glyph glyph-name="aogonek" unicode="&#x105;" horiz-adv-x="1484" d="M1372 43 Q1372 0 1329 0 L1110 0 Q1095 0 1083.5 10 Q1072 20 1063.5 34.5 Q1055 49 1049 64.5 Q1043 80 1039 91 L1026 125 Q960 56 876 18 Q792 -20 695 -20 Q573 -20 462 25 Q351 70 265.5 152.5 Q180 235 129.5 351 Q79 467 79 608 Q79 695 100.5 775.5 Q122 856 161.5 926 Q201 996 256.5 1053.5 Q312 1111 380.5 1152 Q449 1193 528.5 1215.5 Q608 1238 695 1238 Q806 1238 893 1194.5 Q980 1151 1044 1076 L1082 1182 Q1090 1205 1097 1215 Q1104 1225 1125 1225 L1329 1225 Q1372 1225 1372 1182 L1372 43 Z M1005 610 Q1005 671 982.5 726 Q960 781 920.5 822.5 Q881 864 827.5 888.5 Q774 913 712 913 Q655 913 603 891 Q551 869 511.5 829 Q472 789 448.5 733 Q425 677 425 610 Q425 545 447 489.5 Q469 434 507 393.5 Q545 353 597.5 330 Q650 307 712 307 Q774 307 827.5 331.5 Q881 356 920.5 397 Q960 438 982.5 493 Q1005 548 1005 610 Z M1476 -224 Q1476 -276 1457.5 -323 Q1439 -370 1405.5 -406 Q1372 -442 1325.5 -463 Q1279 -484 1223 -484 Q1171 -484 1125 -464.5 Q1079 -445 1044 -410.5 Q1009 -376 988.5 -329.5 Q968 -283 968 -230 Q968 -181 987 -136 Q1006 -91 1037 -57 L1231 137 Q1256 160 1277 137 Q1297 117 1318 96.5 Q1339 76 1359 55 Q1383 33 1359 9 L1169 -181 Q1159 -191 1155 -203 Q1151 -215 1150 -229 Q1151 -264 1173 -280.5 Q1195 -297 1222 -298 Q1235 -298 1248 -294 Q1261 -290 1271 -281.5 Q1281 -273 1287 -260 Q1293 -247 1292 -229 Q1292 -209 1302.5 -199.5 Q1313 -190 1326 -190 L1443 -190 Q1454 -190 1465 -199 Q1476 -208 1476 -224 Z " />
<glyph glyph-name="atilde" unicode="&#xe3;" horiz-adv-x="1484" d="M1372 43 Q1372 0 1329 0 L1110 0 Q1095 0 1083.5 10 Q1072 20 1063.5 34.5 Q1055 49 1049 64.5 Q1043 80 1039 91 L1026 125 Q960 56 876 18 Q792 -20 695 -20 Q573 -20 462 25 Q351 70 265.5 152.5 Q180 235 129.5 351 Q79 467 79 608 Q79 695 100.5 775.5 Q122 856 161.5 926 Q201 996 256.5 1053.5 Q312 1111 380.5 1152 Q449 1193 528.5 1215.5 Q608 1238 695 1238 Q806 1238 893 1194.5 Q980 1151 1044 1076 L1082 1182 Q1090 1205 1097 1215 Q1104 1225 1125 1225 L1329 1225 Q1372 1225 1372 1182 L1372 43 Z M1005 610 Q1005 671 982.5 726 Q960 781 920.5 822.5 Q881 864 827.5 888.5 Q774 913 712 913 Q655 913 603 891 Q551 869 511.5 829 Q472 789 448.5 733 Q425 677 425 610 Q425 545 447 489.5 Q469 434 507 393.5 Q545 353 597.5 330 Q650 307 712 307 Q774 307 827.5 331.5 Q881 356 920.5 397 Q960 438 982.5 493 Q1005 548 1005 610 Z M504 1413 Q496 1403 486.5 1403 Q477 1403 468 1408 Q459 1413 450.5 1420.5 Q442 1428 436 1434 L375 1493 Q361 1506 355 1514 Q349 1522 350 1529 Q351 1536 357.5 1545 Q364 1554 375 1570 Q414 1628 470 1660.5 Q526 1693 589 1693 Q625 1692 660.5 1676.5 Q696 1661 728 1643 Q760 1625 787 1610.5 Q814 1596 834 1596 Q860 1596 874 1609 Q888 1622 908 1646 Q926 1669 944.5 1668 Q963 1667 978 1651 L1065 1563 Q1078 1550 1077 1539 Q1076 1528 1071 1522 Q1028 1456 968 1419 Q908 1382 836 1382 Q798 1382 764 1397 Q730 1412 699.5 1430 Q669 1448 642 1463 Q615 1478 591 1478 Q573 1478 560 1471.5 Q547 1465 537.5 1455 Q528 1445 520 1434 Q512 1423 504 1413 Z " />
<glyph glyph-name="yacute" unicode="&#xfd;" horiz-adv-x="1361" d="M692 -441 Q676 -481 633 -481 L395 -481 Q376 -481 361.5 -476.5 Q347 -472 338.5 -462 Q330 -452 329 -436 Q328 -420 337 -397 L494 4 L33 1151 Q25 1171 26 1185 Q27 1199 34 1208 Q41 1217 52 1221 Q63 1225 75 1225 L343 1225 Q363 1225 377.5 1213 Q392 1201 400 1180 L674 401 L943 1183 Q956 1225 1000 1225 L1287 1225 Q1306 1225 1316 1219 Q1326 1213 1329.5 1203 Q1333 1193 1331 1181.5 Q1329 1170 1325 1160 L692 -441 Z M839 1394 Q826 1365 814.5 1358 Q803 1351 780 1351 L587 1351 Q573 1351 560.5 1361.5 Q548 1372 556 1399 L629 1612 Q637 1636 650 1645.5 Q663 1655 688 1655 L906 1655 Q924 1655 932.5 1638.5 Q941 1622 933 1603 L839 1394 Z " />
<glyph glyph-name="ygrave" unicode="&#x1ef3;" horiz-adv-x="1361" d="M692 -441 Q676 -481 633 -481 L395 -481 Q376 -481 361.5 -476.5 Q347 -472 338.5 -462 Q330 -452 329 -436 Q328 -420 337 -397 L494 4 L33 1151 Q25 1171 26 1185 Q27 1199 34 1208 Q41 1217 52 1221 Q63 1225 75 1225 L343 1225 Q363 1225 377.5 1213 Q392 1201 400 1180 L674 401 L943 1183 Q956 1225 1000 1225 L1287 1225 Q1306 1225 1316 1219 Q1326 1213 1329.5 1203 Q1333 1193 1331 1181.5 Q1329 1170 1325 1160 L692 -441 Z M431 1628 Q423 1647 431.5 1663.5 Q440 1680 458 1680 L676 1680 Q701 1680 714 1670.5 Q727 1661 735 1637 L808 1424 Q816 1397 803.5 1386.5 Q791 1376 777 1376 L584 1376 Q561 1376 549.5 1383 Q538 1390 525 1419 L431 1628 Z " />
<glyph glyph-name="zacute" unicode="&#x17a;" horiz-adv-x="1152" d="M1030 1225 Q1047 1225 1056 1214.5 Q1065 1204 1065 1187 L1065 978 Q1065 957 1059.5 948 Q1054 939 1041 923 L521 310 L1040 310 Q1057 310 1066 298 Q1075 286 1075 275 L1075 35 Q1075 22 1066 10.5 Q1057 -1 1040 -1 L110 -1 Q75 -1 75 35 L75 221 Q75 238 78 246.5 Q81 255 87 262 L643 912 L140 912 Q123 912 114 924 Q105 936 105 947 L105 1187 Q105 1200 114 1212.5 Q123 1225 140 1225 L1030 1225 Z M740 1390 Q727 1361 715.5 1354 Q704 1347 681 1347 L488 1347 Q474 1347 461.5 1357.5 Q449 1368 457 1395 L530 1608 Q538 1632 551 1641.5 Q564 1651 589 1651 L807 1651 Q825 1651 833.5 1634.5 Q842 1618 834 1599 L740 1390 Z " />
<glyph glyph-name="sacute" unicode="&#x15b;" horiz-adv-x="1112" d="M95 180 Q87 189 81 199.5 Q75 210 73 221 Q71 232 75 243.5 Q79 255 92 268 L227 400 Q241 414 257 411.5 Q273 409 290 394 Q314 373 341 353 Q368 333 398 318 Q428 303 460 294 Q492 285 525 285 Q563 285 588 291.5 Q613 298 628 309.5 Q643 321 649 336.5 Q655 352 655 370 Q655 391 647.5 405.5 Q640 420 619 432.5 Q598 445 561 458 Q524 471 466 488 Q374 515 307 552 Q240 589 196.5 639 Q153 689 132 753.5 Q111 818 111 900 Q111 974 141.5 1037 Q172 1100 230.5 1145.5 Q289 1191 374.5 1217 Q460 1243 569 1243 Q650 1243 710.5 1226 Q771 1209 817 1183 Q863 1157 897.5 1126.5 Q932 1096 961 1069 Q981 1051 982.5 1034 Q984 1017 960 996 L813 868 Q793 851 780 853 Q767 855 750 869 Q733 883 715.5 897 Q698 911 678 921.5 Q658 932 633.5 938.5 Q609 945 578 945 Q521 945 493.5 927 Q466 909 466 886 Q466 863 478.5 849.5 Q491 836 520.5 824.5 Q550 813 597.5 799.5 Q645 786 716 763 Q812 731 872 686.5 Q932 642 965 590 Q998 538 1010 482 Q1022 426 1022 371 Q1022 276 982.5 202.5 Q943 129 877.5 78.5 Q812 28 728 1.5 Q644 -25 554 -25 Q493 -25 432 -16 Q371 -7 312 16.5 Q253 40 198 79.5 Q143 119 95 180 Z M719 1403 Q706 1374 694.5 1367 Q683 1360 660 1360 L467 1360 Q453 1360 440.5 1370.5 Q428 1381 436 1408 L509 1621 Q517 1645 530 1654.5 Q543 1664 568 1664 L786 1664 Q804 1664 812.5 1647.5 Q821 1631 813 1612 L719 1403 Z " />
<glyph glyph-name="dcaron" unicode="&#x10f;" horiz-adv-x="1482" d="M1342 43 Q1342 0 1299 0 L1068 0 Q1053 0 1041.5 10 Q1030 20 1021.5 34.5 Q1013 49 1007 64.5 Q1001 80 997 91 L985 122 Q923 56 844.5 18 Q766 -20 673 -20 Q551 -20 443 25 Q335 70 253.5 152.5 Q172 235 124.5 351 Q77 467 77 608 Q77 738 120 852.5 Q163 967 241.5 1052.5 Q320 1138 429.5 1187.5 Q539 1237 673 1237 Q767 1237 841.5 1205.5 Q916 1174 975 1119 L975 1539 Q975 1582 1018 1582 L1299 1582 Q1342 1582 1342 1539 L1342 43 Z M1002 610 Q1002 674 978 730 Q954 786 912.5 827 Q871 868 815.5 891.5 Q760 915 698 915 Q637 915 586 890.5 Q535 866 498.5 824 Q462 782 441.5 726.5 Q421 671 421 610 Q421 547 441.5 491.5 Q462 436 498.5 395 Q535 354 586 330.5 Q637 307 698 307 Q760 307 815.5 330 Q871 353 912.5 394 Q954 435 978 490 Q1002 545 1002 610 Z M1427 1532 Q1427 1567 1442 1578.5 Q1457 1590 1477 1590 L1686 1590 Q1739 1590 1739 1535 L1739 1381 Q1739 1303 1722.5 1245.5 Q1706 1188 1683 1147.5 Q1660 1107 1634.5 1081.5 Q1609 1056 1590 1043 Q1577 1035 1562.5 1031.5 Q1548 1028 1531 1044 L1475 1097 Q1467 1105 1466 1112.5 Q1465 1120 1468 1126.5 Q1471 1133 1476 1138 Q1481 1143 1485 1147 Q1504 1165 1515.5 1183 Q1527 1201 1533 1216.5 Q1539 1232 1540.5 1245 Q1542 1258 1542 1267 L1542 1276 Q1542 1283 1538 1288 Q1534 1293 1524 1293 L1473 1293 Q1453 1293 1440 1305.5 Q1427 1318 1427 1344 L1427 1532 Z " />
<glyph glyph-name="dcroat" unicode="&#x111;" horiz-adv-x="1482" d="M846 1470 Q846 1488 857 1497.5 Q868 1507 879 1507 L1423 1507 Q1430 1507 1443 1498.5 Q1456 1490 1456 1473 L1456 1289 Q1456 1277 1445.5 1266.5 Q1435 1256 1419 1256 L879 1256 Q868 1256 857 1264 Q846 1272 846 1289 L846 1470 Z M1342 43 Q1342 0 1299 0 L1068 0 Q1053 0 1041.5 10 Q1030 20 1021.5 34.5 Q1013 49 1007 64.5 Q1001 80 997 91 L985 122 Q923 56 844.5 18 Q766 -20 673 -20 Q551 -20 443 25 Q335 70 253.5 152.5 Q172 235 124.5 351 Q77 467 77 608 Q77 738 120 852.5 Q163 967 241.5 1052.5 Q320 1138 429.5 1187.5 Q539 1237 673 1237 Q767 1237 841.5 1205.5 Q916 1174 975 1119 L975 1539 Q975 1582 1018 1582 L1299 1582 Q1342 1582 1342 1539 L1342 43 Z M1002 610 Q1002 674 978 730 Q954 786 912.5 827 Q871 868 815.5 891.5 Q760 915 698 915 Q637 915 586 890.5 Q535 866 498.5 824 Q462 782 441.5 726.5 Q421 671 421 610 Q421 547 441.5 491.5 Q462 436 498.5 395 Q535 354 586 330.5 Q637 307 698 307 Q760 307 815.5 330 Q871 353 912.5 394 Q954 435 978 490 Q1002 545 1002 610 Z " />
<glyph glyph-name="hbar" unicode="&#x127;" horiz-adv-x="1348" d="M24 1459 Q24 1473 32.5 1482 Q41 1491 55 1491 L672 1491 Q686 1491 693.5 1483 Q701 1475 701 1461 L701 1330 Q701 1316 692 1308 Q683 1300 670 1300 L53 1300 Q45 1300 34.5 1307 Q24 1314 24 1330 L24 1459 Z M877 641 Q877 702 862.5 750 Q848 798 822 831 Q796 864 760 881 Q724 898 682 898 Q640 898 603.5 883 Q567 868 540.5 838 Q514 808 498.5 763.5 Q483 719 483 661 L483 45 Q483 25 471.5 12.5 Q460 0 438 0 L160 0 Q115 0 115 45 L115 1536 Q115 1559 127.5 1570 Q140 1581 160 1581 L438 1581 Q458 1581 470.5 1568.5 Q483 1556 483 1536 L483 1098 Q515 1128 550 1153.5 Q585 1179 623 1198 Q661 1217 701.5 1228 Q742 1239 785 1239 Q926 1239 1015.5 1190 Q1105 1141 1156 1055.5 Q1207 970 1226 854 Q1245 738 1245 604 L1245 45 Q1245 25 1233.5 12.5 Q1222 0 1200 0 L922 0 Q877 0 877 45 L877 641 Z " />
<glyph glyph-name="hcircumflex" unicode="&#x125;" horiz-adv-x="1348" d="M877 641 Q877 702 862.5 750 Q848 798 822 831 Q796 864 760 881 Q724 898 682 898 Q640 898 603.5 883 Q567 868 540.5 838 Q514 808 498.5 763.5 Q483 719 483 661 L483 45 Q483 25 471.5 12.5 Q460 0 438 0 L160 0 Q115 0 115 45 L115 1536 Q115 1559 127.5 1570 Q140 1581 160 1581 L438 1581 Q458 1581 470.5 1568.5 Q483 1556 483 1536 L483 1098 Q515 1128 550 1153.5 Q585 1179 623 1198 Q661 1217 701.5 1228 Q742 1239 785 1239 Q926 1239 1015.5 1190 Q1105 1141 1156 1055.5 Q1207 970 1226 854 Q1245 738 1245 604 L1245 45 Q1245 25 1233.5 12.5 Q1222 0 1200 0 L922 0 Q877 0 877 45 L877 641 Z M1117 1506 Q1131 1492 1132 1476.5 Q1133 1461 1117 1446 L1039 1371 Q1024 1357 1008.5 1357.5 Q993 1358 980 1371 L856 1494 L735 1369 Q722 1356 706.5 1355.5 Q691 1355 676 1369 L596 1446 Q580 1461 581 1476.5 Q582 1492 596 1506 L828 1737 Q833 1742 840.5 1746.5 Q848 1751 859 1751 Q870 1751 875.5 1748 Q881 1745 889 1737 L1117 1506 Z " />
<glyph glyph-name="uacute" unicode="&#xfa;" horiz-adv-x="1386" d="M903 1180 Q902 1203 914.5 1214 Q927 1225 949 1225 L1227 1225 Q1272 1225 1272 1180 L1272 45 Q1272 0 1227 0 L1049 0 Q1026 0 1006 16.5 Q986 33 980 55 L952 162 Q914 111 868.5 76 Q823 41 773.5 20 Q724 -1 672 -10.5 Q620 -20 568 -20 Q527 -20 478 -11 Q429 -2 378.5 20.5 Q328 43 280.5 81 Q233 119 196.5 177.5 Q160 236 137.5 317 Q115 398 115 506 L115 1181 Q115 1225 159 1225 L431 1225 Q475 1225 475 1181 L475 532 Q475 490 490.5 452 Q506 414 534.5 385 Q563 356 603.5 339 Q644 322 695 322 Q719 322 754.5 331 Q790 340 823 364 Q856 388 879.5 429 Q903 470 903 534 L903 1180 Z M838 1406 Q825 1377 813.5 1370 Q802 1363 779 1363 L586 1363 Q572 1363 559.5 1373.5 Q547 1384 555 1411 L628 1624 Q636 1648 649 1657.5 Q662 1667 687 1667 L905 1667 Q923 1667 931.5 1650.5 Q940 1634 932 1615 L838 1406 Z " />
<glyph glyph-name="ugrave" unicode="&#xf9;" horiz-adv-x="1386" d="M903 1180 Q902 1203 914.5 1214 Q927 1225 949 1225 L1227 1225 Q1272 1225 1272 1180 L1272 45 Q1272 0 1227 0 L1049 0 Q1026 0 1006 16.5 Q986 33 980 55 L952 162 Q914 111 868.5 76 Q823 41 773.5 20 Q724 -1 672 -10.5 Q620 -20 568 -20 Q527 -20 478 -11 Q429 -2 378.5 20.5 Q328 43 280.5 81 Q233 119 196.5 177.5 Q160 236 137.5 317 Q115 398 115 506 L115 1181 Q115 1225 159 1225 L431 1225 Q475 1225 475 1181 L475 532 Q475 490 490.5 452 Q506 414 534.5 385 Q563 356 603.5 339 Q644 322 695 322 Q719 322 754.5 331 Q790 340 823 364 Q856 388 879.5 429 Q903 470 903 534 L903 1180 Z M451 1598 Q443 1617 451.5 1633.5 Q460 1650 478 1650 L696 1650 Q721 1650 734 1640.5 Q747 1631 755 1607 L828 1394 Q836 1367 823.5 1356.5 Q811 1346 797 1346 L604 1346 Q581 1346 569.5 1353 Q558 1360 545 1389 L451 1598 Z " />
<glyph glyph-name="uogonek" unicode="&#x173;" horiz-adv-x="1386" d="M903 1180 Q902 1203 914.5 1214 Q927 1225 949 1225 L1227 1225 Q1272 1225 1272 1180 L1272 45 Q1272 0 1227 0 L1049 0 Q1026 0 1006 16.5 Q986 33 980 55 L952 162 Q914 111 868.5 76 Q823 41 773.5 20 Q724 -1 672 -10.5 Q620 -20 568 -20 Q527 -20 478 -11 Q429 -2 378.5 20.5 Q328 43 280.5 81 Q233 119 196.5 177.5 Q160 236 137.5 317 Q115 398 115 506 L115 1181 Q115 1225 159 1225 L431 1225 Q475 1225 475 1181 L475 532 Q475 490 490.5 452 Q506 414 534.5 385 Q563 356 603.5 339 Q644 322 695 322 Q719 322 754.5 331 Q790 340 823 364 Q856 388 879.5 429 Q903 470 903 534 L903 1180 Z M1376 -222 Q1376 -274 1357.5 -321 Q1339 -368 1305.5 -404 Q1272 -440 1225.5 -461 Q1179 -482 1123 -482 Q1071 -482 1025 -462.5 Q979 -443 944 -408.5 Q909 -374 888.5 -327.5 Q868 -281 868 -228 Q868 -179 887 -134 Q906 -89 937 -55 L1131 139 Q1156 162 1177 139 Q1197 119 1218 98.5 Q1239 78 1259 57 Q1283 35 1259 11 L1069 -179 Q1059 -189 1055 -201 Q1051 -213 1050 -227 Q1051 -262 1073 -278.5 Q1095 -295 1122 -296 Q1135 -296 1148 -292 Q1161 -288 1171 -279.5 Q1181 -271 1187 -258 Q1193 -245 1192 -227 Q1192 -207 1202.5 -197.5 Q1213 -188 1226 -188 L1343 -188 Q1354 -188 1365 -197 Q1376 -206 1376 -222 Z " />
<glyph glyph-name="wacute" unicode="&#x1e83;" horiz-adv-x="1849" d="M1073 880 L1230 515 L1464 1183 Q1471 1205 1486 1215 Q1501 1225 1521 1225 L1793 1225 Q1820 1225 1825 1208.5 Q1830 1192 1816 1160 L1364 42 Q1346 0 1306 0 L1160 0 Q1118 0 1102 42 L921 498 L740 42 Q723 0 682 0 L536 0 Q494 0 478 42 L31 1151 Q17 1187 29 1206 Q41 1225 70 1225 L345 1225 Q386 1225 402 1180 L616 515 L830 1183 Q837 1205 852 1215 Q867 1225 887 1225 L1159 1225 Q1186 1225 1191 1208.5 Q1196 1192 1182 1160 L1073 880 Z M1199 1399 Q1186 1370 1174.5 1363 Q1163 1356 1140 1356 L947 1356 Q933 1356 920.5 1366.5 Q908 1377 916 1404 L989 1617 Q997 1641 1010 1650.5 Q1023 1660 1048 1660 L1266 1660 Q1284 1660 1292.5 1643.5 Q1301 1627 1293 1608 L1199 1399 Z " />
<glyph glyph-name="wgrave" unicode="&#x1e81;" horiz-adv-x="1849" d="M1073 880 L1230 515 L1464 1183 Q1471 1205 1486 1215 Q1501 1225 1521 1225 L1793 1225 Q1820 1225 1825 1208.5 Q1830 1192 1816 1160 L1364 42 Q1346 0 1306 0 L1160 0 Q1118 0 1102 42 L921 498 L740 42 Q723 0 682 0 L536 0 Q494 0 478 42 L31 1151 Q17 1187 29 1206 Q41 1225 70 1225 L345 1225 Q386 1225 402 1180 L616 515 L830 1183 Q837 1205 852 1215 Q867 1225 887 1225 L1159 1225 Q1186 1225 1191 1208.5 Q1196 1192 1182 1160 L1073 880 Z M771 1629 Q763 1648 771.5 1664.5 Q780 1681 798 1681 L1016 1681 Q1041 1681 1054 1671.5 Q1067 1662 1075 1638 L1148 1425 Q1156 1398 1143.5 1387.5 Q1131 1377 1117 1377 L924 1377 Q901 1377 889.5 1384 Q878 1391 865 1420 L771 1629 Z " />
<glyph glyph-name="oacute" unicode="&#xf3;" horiz-adv-x="1413" d="M77 609 Q77 696 99.5 776.5 Q122 857 163 926.5 Q204 996 262 1053.5 Q320 1111 390 1151.5 Q460 1192 541 1214.5 Q622 1237 709 1237 Q840 1237 955.5 1187.5 Q1071 1138 1157 1052.5 Q1243 967 1292.5 853 Q1342 739 1342 609 Q1342 479 1292 364.5 Q1242 250 1156 164.5 Q1070 79 955 29.5 Q840 -20 709 -20 Q578 -20 463 29.5 Q348 79 262 164 Q176 249 126.5 363.5 Q77 478 77 609 Z M429 609 Q429 547 449.5 492 Q470 437 506.5 395 Q543 353 594.5 328.5 Q646 304 709 304 Q772 304 823 329 Q874 354 911 396 Q948 438 968 493 Q988 548 988 609 Q988 670 968 725 Q948 780 911.5 822 Q875 864 824 888.5 Q773 913 710 913 Q647 913 595.5 888.5 Q544 864 507 822.5 Q470 781 449.5 725.5 Q429 670 429 609 Z M873 1400 Q860 1371 848.5 1364 Q837 1357 814 1357 L621 1357 Q607 1357 594.5 1367.5 Q582 1378 590 1405 L663 1618 Q671 1642 684 1651.5 Q697 1661 722 1661 L940 1661 Q958 1661 966.5 1644.5 Q975 1628 967 1609 L873 1400 Z " />
<glyph glyph-name="obreve" unicode="&#x14f;" horiz-adv-x="1413" d="M77 609 Q77 696 99.5 776.5 Q122 857 163 926.5 Q204 996 262 1053.5 Q320 1111 390 1151.5 Q460 1192 541 1214.5 Q622 1237 709 1237 Q840 1237 955.5 1187.5 Q1071 1138 1157 1052.5 Q1243 967 1292.5 853 Q1342 739 1342 609 Q1342 479 1292 364.5 Q1242 250 1156 164.5 Q1070 79 955 29.5 Q840 -20 709 -20 Q578 -20 463 29.5 Q348 79 262 164 Q176 249 126.5 363.5 Q77 478 77 609 Z M429 609 Q429 547 449.5 492 Q470 437 506.5 395 Q543 353 594.5 328.5 Q646 304 709 304 Q772 304 823 329 Q874 354 911 396 Q948 438 968 493 Q988 548 988 609 Q988 670 968 725 Q948 780 911.5 822 Q875 864 824 888.5 Q773 913 710 913 Q647 913 595.5 888.5 Q544 864 507 822.5 Q470 781 449.5 725.5 Q429 670 429 609 Z M703 1360 Q647 1360 598.5 1380.5 Q550 1401 514.5 1434.5 Q479 1468 459 1511.5 Q439 1555 439 1601 Q439 1617 449 1627 Q459 1637 474 1637 L614 1637 Q625 1637 630.5 1630.5 Q636 1624 636 1615 Q636 1594 653 1576 Q670 1558 707 1558 Q739 1558 757 1576.5 Q775 1595 775 1615 Q775 1624 780 1630.5 Q785 1637 795 1637 L935 1637 Q952 1637 962 1627 Q972 1617 972 1601 Q972 1554 951 1510.5 Q930 1467 894 1433.5 Q858 1400 809 1380 Q760 1360 703 1360 Z " />
<glyph glyph-name="ocircumflex" unicode="&#xf4;" horiz-adv-x="1413" d="M77 609 Q77 696 99.5 776.5 Q122 857 163 926.5 Q204 996 262 1053.5 Q320 1111 390 1151.5 Q460 1192 541 1214.5 Q622 1237 709 1237 Q840 1237 955.5 1187.5 Q1071 1138 1157 1052.5 Q1243 967 1292.5 853 Q1342 739 1342 609 Q1342 479 1292 364.5 Q1242 250 1156 164.5 Q1070 79 955 29.5 Q840 -20 709 -20 Q578 -20 463 29.5 Q348 79 262 164 Q176 249 126.5 363.5 Q77 478 77 609 Z M429 609 Q429 547 449.5 492 Q470 437 506.5 395 Q543 353 594.5 328.5 Q646 304 709 304 Q772 304 823 329 Q874 354 911 396 Q948 438 968 493 Q988 548 988 609 Q988 670 968 725 Q948 780 911.5 822 Q875 864 824 888.5 Q773 913 710 913 Q647 913 595.5 888.5 Q544 864 507 822.5 Q470 781 449.5 725.5 Q429 670 429 609 Z M965 1501 Q979 1487 980 1471.5 Q981 1456 965 1441 L887 1366 Q872 1352 856.5 1352.5 Q841 1353 828 1366 L704 1489 L583 1364 Q570 1351 554.5 1350.5 Q539 1350 524 1364 L444 1441 Q428 1456 429 1471.5 Q430 1487 444 1501 L676 1732 Q681 1737 688.5 1741.5 Q696 1746 707 1746 Q718 1746 723.5 1743 Q729 1740 737 1732 L965 1501 Z " />
<glyph glyph-name="ograve" unicode="&#xf2;" horiz-adv-x="1413" d="M77 609 Q77 696 99.5 776.5 Q122 857 163 926.5 Q204 996 262 1053.5 Q320 1111 390 1151.5 Q460 1192 541 1214.5 Q622 1237 709 1237 Q840 1237 955.5 1187.5 Q1071 1138 1157 1052.5 Q1243 967 1292.5 853 Q1342 739 1342 609 Q1342 479 1292 364.5 Q1242 250 1156 164.5 Q1070 79 955 29.5 Q840 -20 709 -20 Q578 -20 463 29.5 Q348 79 262 164 Q176 249 126.5 363.5 Q77 478 77 609 Z M429 609 Q429 547 449.5 492 Q470 437 506.5 395 Q543 353 594.5 328.5 Q646 304 709 304 Q772 304 823 329 Q874 354 911 396 Q948 438 968 493 Q988 548 988 609 Q988 670 968 725 Q948 780 911.5 822 Q875 864 824 888.5 Q773 913 710 913 Q647 913 595.5 888.5 Q544 864 507 822.5 Q470 781 449.5 725.5 Q429 670 429 609 Z M467 1615 Q459 1634 467.5 1650.5 Q476 1667 494 1667 L712 1667 Q737 1667 750 1657.5 Q763 1648 771 1624 L844 1411 Q852 1384 839.5 1373.5 Q827 1363 813 1363 L620 1363 Q597 1363 585.5 1370 Q574 1377 561 1406 L467 1615 Z " />
<glyph glyph-name="oslash" unicode="&#xf8;" horiz-adv-x="1413" d="M79 609 Q79 696 101.5 776.5 Q124 857 165 926.5 Q206 996 264 1053.5 Q322 1111 392 1151.5 Q462 1192 543 1214.5 Q624 1237 711 1237 Q753 1237 793.5 1231.5 Q834 1226 872 1216 L905 1288 Q920 1322 953 1322 L1178 1322 Q1212 1322 1197 1288 L1111 1095 Q1164 1051 1207 997.5 Q1250 944 1280.5 882 Q1311 820 1327.5 751 Q1344 682 1344 609 Q1344 479 1294 364.5 Q1244 250 1158 164.5 Q1072 79 957 29.5 Q842 -20 711 -20 Q688 -20 665 -18.5 Q642 -17 619 -13 L581 -100 Q566 -133 533 -133 L308 -133 Q273 -133 290 -100 L369 79 Q303 121 249.5 177.5 Q196 234 158 302 Q120 370 99.5 447.5 Q79 525 79 609 Z M426 609 Q426 547 447 493.5 Q468 440 506 400 Q544 360 596 337 Q648 314 711 314 Q774 314 826.5 337.5 Q879 361 917 401 Q955 441 976 494.5 Q997 548 997 609 Q997 670 976 723.5 Q955 777 917 817 Q879 857 827 880 Q775 903 712 903 Q649 903 596.5 880 Q544 857 506 817.5 Q468 778 447 724 Q426 670 426 609 Z " />
<glyph glyph-name="otilde" unicode="&#xf5;" horiz-adv-x="1413" d="M77 609 Q77 696 99.5 776.5 Q122 857 163 926.5 Q204 996 262 1053.5 Q320 1111 390 1151.5 Q460 1192 541 1214.5 Q622 1237 709 1237 Q840 1237 955.5 1187.5 Q1071 1138 1157 1052.5 Q1243 967 1292.5 853 Q1342 739 1342 609 Q1342 479 1292 364.5 Q1242 250 1156 164.5 Q1070 79 955 29.5 Q840 -20 709 -20 Q578 -20 463 29.5 Q348 79 262 164 Q176 249 126.5 363.5 Q77 478 77 609 Z M429 609 Q429 547 449.5 492 Q470 437 506.5 395 Q543 353 594.5 328.5 Q646 304 709 304 Q772 304 823 329 Q874 354 911 396 Q948 438 968 493 Q988 548 988 609 Q988 670 968 725 Q948 780 911.5 822 Q875 864 824 888.5 Q773 913 710 913 Q647 913 595.5 888.5 Q544 864 507 822.5 Q470 781 449.5 725.5 Q429 670 429 609 Z M493 1392 Q485 1382 475.5 1382 Q466 1382 457 1387 Q448 1392 439.5 1399.5 Q431 1407 425 1413 L364 1472 Q350 1485 344 1493 Q338 1501 339 1508 Q340 1515 346.5 1524 Q353 1533 364 1549 Q403 1607 459 1639.5 Q515 1672 578 1672 Q614 1671 649.5 1655.5 Q685 1640 717 1622 Q749 1604 776 1589.5 Q803 1575 823 1575 Q849 1575 863 1588 Q877 1601 897 1625 Q915 1648 933.5 1647 Q952 1646 967 1630 L1054 1542 Q1067 1529 1066 1518 Q1065 1507 1060 1501 Q1017 1435 957 1398 Q897 1361 825 1361 Q787 1361 753 1376 Q719 1391 688.5 1409 Q658 1427 631 1442 Q604 1457 580 1457 Q562 1457 549 1450.5 Q536 1444 526.5 1434 Q517 1424 509 1413 Q501 1402 493 1392 Z " />
<glyph glyph-name="oe" unicode="&#x153;" horiz-adv-x="2287" d="M1937 393 Q1947 401 1963 402 Q1979 403 1990 388 L2113 218 Q2128 198 2128 182.5 Q2128 167 2111 153 Q2051 100 1992 66 Q1933 32 1876 13 Q1819 -6 1762.5 -13 Q1706 -20 1651 -20 Q1568 -20 1489 2.5 Q1410 25 1340.5 66 Q1271 107 1212.5 164 Q1154 221 1112 291 Q1070 361 1046.5 441 Q1023 521 1023 608 Q1023 738 1068 852 Q1113 966 1194.5 1051.5 Q1276 1137 1390 1186.5 Q1504 1236 1641 1236 Q1698 1236 1762.5 1221 Q1827 1206 1890 1174 Q1953 1142 2011 1092.5 Q2069 1043 2113 974 Q2157 905 2183.5 816 Q2210 727 2210 616 Q2210 577 2202.5 553 Q2195 529 2177.5 516.5 Q2160 504 2133 499.5 Q2106 495 2067 495 L1375 495 Q1388 446 1414.5 407 Q1441 368 1477 340.5 Q1513 313 1557 298 Q1601 283 1649 283 Q1718 283 1763 294 Q1808 305 1839.5 321.5 Q1871 338 1893 357 Q1915 376 1937 393 Z M1630 946 Q1589 946 1553 932 Q1517 918 1487 894 Q1457 870 1433.5 838 Q1410 806 1394 769 L1879 769 Q1841 854 1777 900 Q1713 946 1630 946 Z M100 609 Q100 696 122.5 776.5 Q145 857 186 926.5 Q227 996 285 1053.5 Q343 1111 413 1151.5 Q483 1192 564 1214.5 Q645 1237 732 1237 Q863 1237 978.5 1187.5 Q1094 1138 1180 1052.5 Q1266 967 1315.5 853 Q1365 739 1365 609 Q1365 479 1315 364.5 Q1265 250 1179 164.5 Q1093 79 978 29.5 Q863 -20 732 -20 Q601 -20 486 29.5 Q371 79 285 164 Q199 249 149.5 363.5 Q100 478 100 609 Z M452 609 Q452 547 472.5 492 Q493 437 529.5 395 Q566 353 617.5 328.5 Q669 304 732 304 Q795 304 846 329 Q897 354 934 396 Q971 438 991 493 Q1011 548 1011 609 Q1011 670 991 725 Q971 780 934.5 822 Q898 864 847 888.5 Q796 913 733 913 Q670 913 618.5 888.5 Q567 864 530 822.5 Q493 781 472.5 725.5 Q452 670 452 609 Z " />
<glyph glyph-name="nacute" unicode="&#x144;" horiz-adv-x="1386" d="M913 675 Q913 722 898.5 762.5 Q884 803 857 833 Q830 863 791.5 880 Q753 897 704 897 Q655 897 614.5 880 Q574 863 545 833 Q516 803 500 762.5 Q484 722 484 675 L484 55 Q484 44 478 34 Q472 24 462 16.5 Q452 9 440.5 4.5 Q429 0 418 0 L161 0 Q115 0 115 45 L115 1180 Q115 1225 161 1225 L339 1225 Q362 1225 382 1208.5 Q402 1192 408 1170 L435 1060 Q472 1108 516.5 1142 Q561 1176 610 1197.5 Q659 1219 711 1229 Q763 1239 815 1239 Q855 1239 905 1228.5 Q955 1218 1005.5 1193.5 Q1056 1169 1104 1129.5 Q1152 1090 1189.5 1031.5 Q1227 973 1249.5 894 Q1272 815 1272 713 L1272 44 Q1272 0 1228 0 L959 0 Q913 0 913 44 L913 675 Z M954 1402 Q941 1373 929.5 1366 Q918 1359 895 1359 L702 1359 Q688 1359 675.5 1369.5 Q663 1380 671 1407 L744 1620 Q752 1644 765 1653.5 Q778 1663 803 1663 L1021 1663 Q1039 1663 1047.5 1646.5 Q1056 1630 1048 1611 L954 1402 Z " />
<glyph glyph-name="ntilde" unicode="&#xf1;" horiz-adv-x="1386" d="M913 675 Q913 722 898.5 762.5 Q884 803 857 833 Q830 863 791.5 880 Q753 897 704 897 Q655 897 614.5 880 Q574 863 545 833 Q516 803 500 762.5 Q484 722 484 675 L484 55 Q484 44 478 34 Q472 24 462 16.5 Q452 9 440.5 4.5 Q429 0 418 0 L161 0 Q115 0 115 45 L115 1180 Q115 1225 161 1225 L339 1225 Q362 1225 382 1208.5 Q402 1192 408 1170 L435 1060 Q472 1108 516.5 1142 Q561 1176 610 1197.5 Q659 1219 711 1229 Q763 1239 815 1239 Q855 1239 905 1228.5 Q955 1218 1005.5 1193.5 Q1056 1169 1104 1129.5 Q1152 1090 1189.5 1031.5 Q1227 973 1249.5 894 Q1272 815 1272 713 L1272 44 Q1272 0 1228 0 L959 0 Q913 0 913 44 L913 675 Z M516 1398 Q508 1388 498.5 1388 Q489 1388 480 1393 Q471 1398 462.5 1405.5 Q454 1413 448 1419 L387 1478 Q373 1491 367 1499 Q361 1507 362 1514 Q363 1521 369.5 1530 Q376 1539 387 1555 Q426 1613 482 1645.5 Q538 1678 601 1678 Q637 1677 672.5 1661.5 Q708 1646 740 1628 Q772 1610 799 1595.5 Q826 1581 846 1581 Q872 1581 886 1594 Q900 1607 920 1631 Q938 1654 956.5 1653 Q975 1652 990 1636 L1077 1548 Q1090 1535 1089 1524 Q1088 1513 1083 1507 Q1040 1441 980 1404 Q920 1367 848 1367 Q810 1367 776 1382 Q742 1397 711.5 1415 Q681 1433 654 1448 Q627 1463 603 1463 Q585 1463 572 1456.5 Q559 1450 549.5 1440 Q540 1430 532 1419 Q524 1408 516 1398 Z " />
<glyph glyph-name="gbreve" unicode="&#x11f;" horiz-adv-x="1475" d="M1360 199 Q1360 28 1306.5 -96 Q1253 -220 1164.5 -300.5 Q1076 -381 962.5 -418.5 Q849 -456 729 -454 Q664 -453 600 -442 Q536 -431 476 -409.5 Q416 -388 361.5 -356 Q307 -324 262 -280 Q243 -262 247 -248.5 Q251 -235 262 -218 L372 -57 Q389 -32 410 -32 Q431 -32 450 -48 Q498 -89 562 -111 Q626 -133 719 -133 Q773 -133 826 -115.5 Q879 -98 921 -64.5 Q963 -31 988.5 17 Q1014 65 1014 126 L1014 152 Q950 87 870 49.5 Q790 12 698 12 Q619 12 544.5 32 Q470 52 404 89 Q338 126 282.5 179.5 Q227 233 187.5 300 Q148 367 126 446 Q104 525 104 615 Q104 700 126 779.5 Q148 859 187.5 928.5 Q227 998 282.5 1055.5 Q338 1113 404 1154.5 Q470 1196 544.5 1218.5 Q619 1241 698 1241 Q807 1241 894 1197 Q981 1153 1046 1079 L1078 1168 Q1088 1198 1097 1211 Q1106 1224 1132 1224 L1314 1224 Q1335 1224 1347.5 1214.5 Q1360 1205 1360 1179 L1360 199 Z M1034 611 Q1034 674 1011 729.5 Q988 785 948 826.5 Q908 868 852.5 892 Q797 916 733 916 Q668 916 616.5 891.5 Q565 867 529 825 Q493 783 474 727.5 Q455 672 455 609 Q455 546 475 491.5 Q495 437 532 396.5 Q569 356 622 333 Q675 310 740 310 Q800 310 853.5 333 Q907 356 947 396.5 Q987 437 1010.5 492 Q1034 547 1034 611 Z M725 1362 Q669 1362 620.5 1382.5 Q572 1403 536.5 1436.5 Q501 1470 481 1513.5 Q461 1557 461 1603 Q461 1619 471 1629 Q481 1639 496 1639 L636 1639 Q647 1639 652.5 1632.5 Q658 1626 658 1617 Q658 1596 675 1578 Q692 1560 729 1560 Q761 1560 779 1578.5 Q797 1597 797 1617 Q797 1626 802 1632.5 Q807 1639 817 1639 L957 1639 Q974 1639 984 1629 Q994 1619 994 1603 Q994 1556 973 1512.5 Q952 1469 916 1435.5 Q880 1402 831 1382 Q782 1362 725 1362 Z " />
<glyph glyph-name="gcircumflex" unicode="&#x11d;" horiz-adv-x="1475" d="M1360 199 Q1360 28 1306.5 -96 Q1253 -220 1164.5 -300.5 Q1076 -381 962.5 -418.5 Q849 -456 729 -454 Q664 -453 600 -442 Q536 -431 476 -409.5 Q416 -388 361.5 -356 Q307 -324 262 -280 Q243 -262 247 -248.5 Q251 -235 262 -218 L372 -57 Q389 -32 410 -32 Q431 -32 450 -48 Q498 -89 562 -111 Q626 -133 719 -133 Q773 -133 826 -115.5 Q879 -98 921 -64.5 Q963 -31 988.5 17 Q1014 65 1014 126 L1014 152 Q950 87 870 49.5 Q790 12 698 12 Q619 12 544.5 32 Q470 52 404 89 Q338 126 282.5 179.5 Q227 233 187.5 300 Q148 367 126 446 Q104 525 104 615 Q104 700 126 779.5 Q148 859 187.5 928.5 Q227 998 282.5 1055.5 Q338 1113 404 1154.5 Q470 1196 544.5 1218.5 Q619 1241 698 1241 Q807 1241 894 1197 Q981 1153 1046 1079 L1078 1168 Q1088 1198 1097 1211 Q1106 1224 1132 1224 L1314 1224 Q1335 1224 1347.5 1214.5 Q1360 1205 1360 1179 L1360 199 Z M1034 611 Q1034 674 1011 729.5 Q988 785 948 826.5 Q908 868 852.5 892 Q797 916 733 916 Q668 916 616.5 891.5 Q565 867 529 825 Q493 783 474 727.5 Q455 672 455 609 Q455 546 475 491.5 Q495 437 532 396.5 Q569 356 622 333 Q675 310 740 310 Q800 310 853.5 333 Q907 356 947 396.5 Q987 437 1010.5 492 Q1034 547 1034 611 Z M993 1511 Q1007 1497 1008 1481.5 Q1009 1466 993 1451 L915 1376 Q900 1362 884.5 1362.5 Q869 1363 856 1376 L732 1499 L611 1374 Q598 1361 582.5 1360.5 Q567 1360 552 1374 L472 1451 Q456 1466 457 1481.5 Q458 1497 472 1511 L704 1742 Q709 1747 716.5 1751.5 Q724 1756 735 1756 Q746 1756 751.5 1753 Q757 1750 765 1742 L993 1511 Z " />
<glyph glyph-name="gcommaaccent" unicode="&#x123;" horiz-adv-x="1475" d="M1360 199 Q1360 28 1306.5 -96 Q1253 -220 1164.5 -300.5 Q1076 -381 962.5 -418.5 Q849 -456 729 -454 Q664 -453 600 -442 Q536 -431 476 -409.5 Q416 -388 361.5 -356 Q307 -324 262 -280 Q243 -262 247 -248.5 Q251 -235 262 -218 L372 -57 Q389 -32 410 -32 Q431 -32 450 -48 Q498 -89 562 -111 Q626 -133 719 -133 Q773 -133 826 -115.5 Q879 -98 921 -64.5 Q963 -31 988.5 17 Q1014 65 1014 126 L1014 152 Q950 87 870 49.5 Q790 12 698 12 Q619 12 544.5 32 Q470 52 404 89 Q338 126 282.5 179.5 Q227 233 187.5 300 Q148 367 126 446 Q104 525 104 615 Q104 700 126 779.5 Q148 859 187.5 928.5 Q227 998 282.5 1055.5 Q338 1113 404 1154.5 Q470 1196 544.5 1218.5 Q619 1241 698 1241 Q807 1241 894 1197 Q981 1153 1046 1079 L1078 1168 Q1088 1198 1097 1211 Q1106 1224 1132 1224 L1314 1224 Q1335 1224 1347.5 1214.5 Q1360 1205 1360 1179 L1360 199 Z M1034 611 Q1034 674 1011 729.5 Q988 785 948 826.5 Q908 868 852.5 892 Q797 916 733 916 Q668 916 616.5 891.5 Q565 867 529 825 Q493 783 474 727.5 Q455 672 455 609 Q455 546 475 491.5 Q495 437 532 396.5 Q569 356 622 333 Q675 310 740 310 Q800 310 853.5 333 Q907 356 947 396.5 Q987 437 1010.5 492 Q1034 547 1034 611 Z M866.007 1432.99 Q866.007 1397.99 851.008 1386.49 Q836.009 1374.99 816.01 1374.99 L607.023 1374.99 Q554.026 1374.99 554.026 1429.99 L554.026 1583.98 Q554.026 1661.98 570.525 1719.47 Q587.024 1776.97 610.023 1817.47 Q633.022 1857.96 658.52 1883.46 Q684.018 1908.96 703.017 1921.96 Q716.017 1929.96 730.516 1933.46 Q745.015 1936.96 762.014 1920.96 L818.01 1867.96 Q826.01 1859.96 827.01 1852.46 Q828.01 1844.96 825.01 1838.46 Q822.01 1831.96 817.01 1826.97 Q812.011 1821.97 808.011 1817.97 Q789.012 1799.97 777.513 1781.97 Q766.013 1763.97 760.014 1748.47 Q754.014 1732.97 752.514 1719.97 Q751.014 1706.97 751.014 1697.97 L751.014 1688.97 Q751.014 1681.97 755.014 1676.97 Q759.014 1671.97 769.013 1671.97 L820.01 1671.97 Q840.009 1671.97 853.008 1659.48 Q866.007 1646.98 866.007 1620.98 L866.007 1432.99 Z " />
<glyph glyph-name="ccedilla" unicode="&#xe7;" horiz-adv-x="1185" d="M920 392 Q930 399 946.5 400 Q963 401 971 388 L1108 187 Q1120 167 1119 154 Q1118 141 1101 126 Q1068 97 1022.5 70 Q977 43 924.5 22.5 Q872 2 816.5 -10 Q761 -22 707 -22 Q576 -21 461.5 26 Q347 73 261.5 157 Q176 241 126.5 357 Q77 473 77 611 Q77 697 99 777.5 Q121 858 161.5 927.5 Q202 997 259 1054 Q316 1111 385 1152 Q454 1193 534 1215.5 Q614 1238 700 1238 Q767 1238 822.5 1228.5 Q878 1219 926 1201.5 Q974 1184 1016.5 1158 Q1059 1132 1101 1099 Q1113 1089 1116.5 1078.5 Q1120 1068 1112 1055 L975 843 Q967 832 953 831.5 Q939 831 928 839 Q866 882 812.5 899 Q759 916 702 916 Q647 916 597 893.5 Q547 871 509 830.5 Q471 790 448.5 734 Q426 678 426 610 Q426 542 447.5 486.5 Q469 431 506 391 Q543 351 593.5 329.5 Q644 308 703 308 Q737 308 768 316 Q799 324 827 336.5 Q855 349 878.5 364 Q902 379 920 392 Z M716 -240 Q716 -219 702 -201.5 Q688 -184 667 -168.5 Q646 -153 621 -138 Q596 -123 575 -106.5 Q554 -90 540 -71.5 Q526 -53 526 -29 Q526 -17 530 -4.5 Q534 8 540 18.5 Q546 29 553.5 36 Q561 43 568 43 L759 44 Q767 44 776 42.5 Q785 41 792 38.5 Q799 36 801 32 Q803 28 798 24 Q789 16 783 8.5 Q777 1 777 -10 Q777 -27 791.5 -40 Q806 -53 828 -66.5 Q850 -80 875 -94.5 Q900 -109 922 -128.5 Q944 -148 958.5 -174 Q973 -200 973 -235 Q973 -284 941 -330.5 Q909 -377 861 -415 Q813 -453 758 -480.5 Q703 -508 657 -518 Q646 -520 632.5 -519 Q619 -518 612 -504 L548 -377 Q541 -363 546 -354 Q551 -345 561 -342 Q639 -316 677.5 -293 Q716 -270 716 -240 Z " />
<glyph glyph-name="ccircumflex" unicode="&#x109;" horiz-adv-x="1185" d="M920 392 Q930 399 946.5 400 Q963 401 971 388 L1108 187 Q1120 167 1119 154 Q1118 141 1101 126 Q1068 97 1022.5 70 Q977 43 924.5 22.5 Q872 2 816.5 -10 Q761 -22 707 -22 Q576 -21 461.5 26 Q347 73 261.5 157 Q176 241 126.5 357 Q77 473 77 611 Q77 697 99 777.5 Q121 858 161.5 927.5 Q202 997 259 1054 Q316 1111 385 1152 Q454 1193 534 1215.5 Q614 1238 700 1238 Q767 1238 822.5 1228.5 Q878 1219 926 1201.5 Q974 1184 1016.5 1158 Q1059 1132 1101 1099 Q1113 1089 1116.5 1078.5 Q1120 1068 1112 1055 L975 843 Q967 832 953 831.5 Q939 831 928 839 Q866 882 812.5 899 Q759 916 702 916 Q647 916 597 893.5 Q547 871 509 830.5 Q471 790 448.5 734 Q426 678 426 610 Q426 542 447.5 486.5 Q469 431 506 391 Q543 351 593.5 329.5 Q644 308 703 308 Q737 308 768 316 Q799 324 827 336.5 Q855 349 878.5 364 Q902 379 920 392 Z M971 1519 Q985 1505 986 1489.5 Q987 1474 971 1459 L893 1384 Q878 1370 862.5 1370.5 Q847 1371 834 1384 L710 1507 L589 1382 Q576 1369 560.5 1368.5 Q545 1368 530 1382 L450 1459 Q434 1474 435 1489.5 Q436 1505 450 1519 L682 1750 Q687 1755 694.5 1759.5 Q702 1764 713 1764 Q724 1764 729.5 1761 Q735 1758 743 1750 L971 1519 Z " />
<glyph glyph-name="cdotaccent" unicode="&#x10b;" horiz-adv-x="1185" d="M920 392 Q930 399 946.5 400 Q963 401 971 388 L1108 187 Q1120 167 1119 154 Q1118 141 1101 126 Q1068 97 1022.5 70 Q977 43 924.5 22.5 Q872 2 816.5 -10 Q761 -22 707 -22 Q576 -21 461.5 26 Q347 73 261.5 157 Q176 241 126.5 357 Q77 473 77 611 Q77 697 99 777.5 Q121 858 161.5 927.5 Q202 997 259 1054 Q316 1111 385 1152 Q454 1193 534 1215.5 Q614 1238 700 1238 Q767 1238 822.5 1228.5 Q878 1219 926 1201.5 Q974 1184 1016.5 1158 Q1059 1132 1101 1099 Q1113 1089 1116.5 1078.5 Q1120 1068 1112 1055 L975 843 Q967 832 953 831.5 Q939 831 928 839 Q866 882 812.5 899 Q759 916 702 916 Q647 916 597 893.5 Q547 871 509 830.5 Q471 790 448.5 734 Q426 678 426 610 Q426 542 447.5 486.5 Q469 431 506 391 Q543 351 593.5 329.5 Q644 308 703 308 Q737 308 768 316 Q799 324 827 336.5 Q855 349 878.5 364 Q902 379 920 392 Z M572 1586 Q572 1610 584.5 1627 Q597 1644 629 1644 L789 1644 Q818 1644 829.5 1628 Q841 1612 841 1586 L841 1425 Q841 1395 827.5 1384.5 Q814 1374 789 1374 L629 1374 Q604 1374 588 1384.5 Q572 1395 572 1424 L572 1586 Z " />
<glyph glyph-name="ibreve" unicode="&#x12d;" horiz-adv-x="597" d="M114 1183 Q114 1204 127.5 1214.5 Q141 1225 156 1225 L441 1225 Q459 1225 471 1213.5 Q483 1202 483 1183 L483 42 Q483 0 441 0 L156 0 Q114 0 114 42 L114 1183 Z M299 1371 Q243 1371 194.5 1391.5 Q146 1412 110.5 1445.5 Q75 1479 55 1522.5 Q35 1566 35 1612 Q35 1628 45 1638 Q55 1648 70 1648 L210 1648 Q221 1648 226.5 1641.5 Q232 1635 232 1626 Q232 1605 249 1587 Q266 1569 303 1569 Q335 1569 353 1587.5 Q371 1606 371 1626 Q371 1635 376 1641.5 Q381 1648 391 1648 L531 1648 Q548 1648 558 1638 Q568 1628 568 1612 Q568 1565 547 1521.5 Q526 1478 490 1444.5 Q454 1411 405 1391 Q356 1371 299 1371 Z " />
<glyph glyph-name="lslash" unicode="&#x142;" horiz-adv-x="595" d="M-44 659 Q-44 673 -42 684 Q-40 695 -27 700 L624 942 Q638 947 650 943 Q662 939 662 925 L662 803 Q662 789 660 779 Q658 769 646 764 L-6 522 Q-10 520 -16.5 519.5 Q-23 519 -29 520.5 Q-35 522 -39.5 526.5 Q-44 531 -44 539 L-44 659 Z M115 1536 Q115 1559 128.5 1570 Q142 1581 162 1581 L434 1581 Q454 1581 467 1568.5 Q480 1556 480 1536 L480 45 Q480 25 468 12.5 Q456 0 434 0 L162 0 Q140 0 127.5 11 Q115 22 115 45 L115 1536 Z " />
<glyph glyph-name="kcommaaccent" unicode="&#x137;" horiz-adv-x="1356" d="M821 728 L1325 73 Q1335 59 1337 46 Q1339 33 1334 22.5 Q1329 12 1318.5 6 Q1308 0 1295 0 L977 0 Q956 0 943.5 9.5 Q931 19 915 42 L593 491 L481 375 L481 41 Q481 0 440 0 L156 0 Q115 0 115 41 L115 1541 Q115 1582 156 1582 L440 1582 Q481 1582 481 1541 L481 806 L827 1194 Q847 1216 863 1220.5 Q879 1225 902 1225 L1186 1225 Q1204 1225 1216 1217.5 Q1228 1210 1233.5 1199 Q1239 1188 1237.5 1176.5 Q1236 1165 1227 1156 L821 728 Z M523 -148 Q523 -113 538 -101.5 Q553 -90 573 -90 L782 -90 Q835 -90 835 -145 L835 -299 Q835 -377 818.5 -434.5 Q802 -492 779 -532.5 Q756 -573 730.5 -598.5 Q705 -624 686 -637 Q673 -645 658.5 -648.5 Q644 -652 627 -636 L571 -583 Q563 -575 562 -567.5 Q561 -560 564 -553.5 Q567 -547 572 -542 Q577 -537 581 -533 Q600 -515 611.5 -497 Q623 -479 629 -463.5 Q635 -448 636.5 -435 Q638 -422 638 -413 L638 -404 Q638 -397 634 -392 Q630 -387 620 -387 L569 -387 Q549 -387 536 -374.5 Q523 -362 523 -336 L523 -148 Z " />
<glyph glyph-name="kgreenlandic" unicode="&#x138;" horiz-adv-x="1356" d="M821 728 L1325 73 Q1335 59 1337 46 Q1339 33 1334 22.5 Q1329 12 1318.5 6 Q1308 0 1295 0 L977 0 Q956 0 943.5 9.5 Q931 19 915 42 L593 491 L481 375 L481 41 Q481 0 440 0 L156 0 Q115 0 115 41 L115 1185 Q115 1226 156 1226 L440 1226 Q481 1226 481 1185 L481 806 L827 1193 Q847 1215 863 1219.5 Q879 1224 902 1224 L1186 1224 Q1204 1224 1216 1216.5 Q1228 1209 1233.5 1198 Q1239 1187 1237.5 1175.5 Q1236 1164 1227 1155 L821 728 Z " />
<glyph glyph-name="jcircumflex" unicode="&#x135;" horiz-adv-x="603" d="M117 1180 Q117 1200 128 1212.5 Q139 1225 162 1225 L441 1225 Q485 1225 485 1180 L485 17 Q485 -75 451.5 -151.5 Q418 -228 356 -283 Q294 -338 206 -368.5 Q118 -399 9 -399 Q-21 -399 -41 -387 Q-61 -375 -61 -357 L-61 -159 Q-61 -152 -60 -142.5 Q-59 -133 -54 -125.5 Q-49 -118 -38 -112.5 Q-27 -107 -7 -107 Q30 -107 54 -97.5 Q78 -88 92 -69 Q106 -50 111.5 -20.5 Q117 9 117 48 L117 1180 Z M556 1515 Q570 1501 571 1485.5 Q572 1470 556 1455 L478 1380 Q463 1366 447.5 1366.5 Q432 1367 419 1380 L295 1503 L174 1378 Q161 1365 145.5 1364.5 Q130 1364 115 1378 L35 1455 Q19 1470 20 1485.5 Q21 1501 35 1515 L267 1746 Q272 1751 279.5 1755.5 Q287 1760 298 1760 Q309 1760 314.5 1757 Q320 1754 328 1746 L556 1515 Z " />
<glyph glyph-name="itilde" unicode="&#x129;" horiz-adv-x="597" d="M114 1183 Q114 1204 127.5 1214.5 Q141 1225 156 1225 L441 1225 Q459 1225 471 1213.5 Q483 1202 483 1183 L483 42 Q483 0 441 0 L156 0 Q114 0 114 42 L114 1183 Z M93 1402 Q85 1392 75.5 1392 Q66 1392 57 1397 Q48 1402 39.5 1409.5 Q31 1417 25 1423 L-36 1482 Q-50 1495 -56 1503 Q-62 1511 -61 1518 Q-60 1525 -53.5 1534 Q-47 1543 -36 1559 Q3 1617 59 1649.5 Q115 1682 178 1682 Q214 1681 249.5 1665.5 Q285 1650 317 1632 Q349 1614 376 1599.5 Q403 1585 423 1585 Q449 1585 463 1598 Q477 1611 497 1635 Q515 1658 533.5 1657 Q552 1656 567 1640 L654 1552 Q667 1539 666 1528 Q665 1517 660 1511 Q617 1445 557 1408 Q497 1371 425 1371 Q387 1371 353 1386 Q319 1401 288.5 1419 Q258 1437 231 1452 Q204 1467 180 1467 Q162 1467 149 1460.5 Q136 1454 126.5 1444 Q117 1434 109 1423 Q101 1412 93 1402 Z " />
<glyph glyph-name="iogonek" unicode="&#x12f;" horiz-adv-x="597" d="M114 1183 Q114 1204 127.5 1214.5 Q141 1225 156 1225 L441 1225 Q459 1225 471 1213.5 Q483 1202 483 1183 L483 42 Q483 0 441 0 L156 0 Q114 0 114 42 L114 1183 Z M113 1625 Q113 1659 130.5 1682 Q148 1705 192 1705 L412 1705 Q451 1705 467.5 1683.5 Q484 1662 484 1625 L484 1443 Q484 1402 465.5 1387.5 Q447 1373 412 1373 L192 1373 Q157 1373 135 1387 Q113 1401 113 1442 L113 1625 Z M586 -225 Q586 -277 567.5 -324 Q549 -371 515.5 -407 Q482 -443 435.5 -464 Q389 -485 333 -485 Q281 -485 235 -465.5 Q189 -446 154 -411.5 Q119 -377 98.5 -330.5 Q78 -284 78 -231 Q78 -182 97 -137 Q116 -92 147 -58 L341 136 Q366 159 387 136 Q407 116 428 95.5 Q449 75 469 54 Q493 32 469 8 L279 -182 Q269 -192 265 -204 Q261 -216 260 -230 Q261 -265 283 -281.5 Q305 -298 332 -299 Q345 -299 358 -295 Q371 -291 381 -282.5 Q391 -274 397 -261 Q403 -248 402 -230 Q402 -210 412.5 -200.5 Q423 -191 436 -191 L553 -191 Q564 -191 575 -200 Q586 -209 586 -225 Z " />
<glyph glyph-name="ae" unicode="&#xe6;" horiz-adv-x="2314" d="M1967 393 Q1977 401 1993 402 Q2009 403 2020 388 L2143 218 Q2158 198 2158 182.5 Q2158 167 2141 153 Q2081 100 2022 66 Q1963 32 1906 13 Q1849 -6 1792.5 -13 Q1736 -20 1681 -20 Q1598 -20 1519 2.5 Q1440 25 1370.5 66 Q1301 107 1242.5 164 Q1184 221 1142 291 Q1100 361 1076.5 441 Q1053 521 1053 608 Q1053 738 1098 852 Q1143 966 1224.5 1051.5 Q1306 1137 1420 1186.5 Q1534 1236 1671 1236 Q1728 1236 1793 1221 Q1858 1206 1922.5 1174 Q1987 1142 2046 1092.5 Q2105 1043 2150.5 974 Q2196 905 2223 816 Q2250 727 2250 616 Q2250 577 2236 553 Q2222 529 2198.5 516.5 Q2175 504 2144.5 499.5 Q2114 495 2081 495 L1405 495 Q1418 446 1443 407 Q1468 368 1502 340.5 Q1536 313 1578.5 298 Q1621 283 1669 283 Q1738 283 1785 294 Q1832 305 1865 321.5 Q1898 338 1921.5 357 Q1945 376 1967 393 Z M1660 946 Q1619 946 1583 932 Q1547 918 1517 894 Q1487 870 1463.5 838 Q1440 806 1424 769 L1909 769 Q1871 854 1807 900 Q1743 946 1660 946 Z M1393 43 Q1393 0 1350 0 L1131 0 Q1116 0 1104.5 10 Q1093 20 1084.5 34.5 Q1076 49 1070 64.5 Q1064 80 1060 91 L1047 125 Q981 56 897 18 Q813 -20 716 -20 Q594 -20 483 25 Q372 70 286.5 152.5 Q201 235 150.5 351 Q100 467 100 608 Q100 695 121.5 775.5 Q143 856 182.5 926 Q222 996 277.5 1053.5 Q333 1111 401.5 1152 Q470 1193 549.5 1215.5 Q629 1238 716 1238 Q827 1238 914 1194.5 Q1001 1151 1065 1076 L1103 1180 Q1111 1203 1118 1213 Q1125 1223 1146 1223 L1350 1223 Q1393 1223 1393 1180 L1393 43 Z M1026 610 Q1026 671 1003.5 726 Q981 781 941.5 822.5 Q902 864 848.5 888.5 Q795 913 733 913 Q676 913 624 891 Q572 869 532.5 829 Q493 789 469.5 733 Q446 677 446 610 Q446 545 468 489.5 Q490 434 528 393.5 Q566 353 618.5 330 Q671 307 733 307 Q795 307 848.5 331.5 Q902 356 941.5 397 Q981 438 1003.5 493 Q1026 548 1026 610 Z " />
<glyph glyph-name="Gbreve" unicode="&#x11e;" horiz-adv-x="1442" d="M842 334 Q872 335 905 339.5 Q938 344 968 353 L968 607 Q968 649 1010 649 L1278 649 Q1290 649 1304.5 641.5 Q1319 634 1319 607 L1319 143 Q1319 129 1314.5 117.5 Q1310 106 1296 98 Q1208 42 1090.5 11 Q973 -20 842 -20 Q689 -20 555 38 Q421 96 320.5 196 Q220 296 162 430 Q104 564 104 717 Q104 819 130 912.5 Q156 1006 203.5 1087 Q251 1168 318 1234.5 Q385 1301 466.5 1348 Q548 1395 642 1421 Q736 1447 838 1447 Q903 1447 960 1438.5 Q1017 1430 1068 1413 Q1119 1396 1166 1371 Q1213 1346 1257 1314 Q1289 1290 1269 1260 L1110 1032 Q1099 1016 1083.5 1015 Q1068 1014 1053 1025 Q1009 1057 957 1076.5 Q905 1096 842 1096 Q758 1096 690.5 1066.5 Q623 1037 575 986 Q527 935 501 866 Q475 797 475 717 Q475 637 502.5 566.5 Q530 496 578.5 443.5 Q627 391 694.5 361.5 Q762 332 842 334 Z M838 1582 Q782 1582 733.5 1602.5 Q685 1623 649.5 1656.5 Q614 1690 594 1733.5 Q574 1777 574 1823 Q574 1839 584 1849 Q594 1859 609 1859 L749 1859 Q760 1859 765.5 1852.5 Q771 1846 771 1837 Q771 1816 788 1798 Q805 1780 842 1780 Q874 1780 892 1798.5 Q910 1817 910 1837 Q910 1846 915 1852.5 Q920 1859 930 1859 L1070 1859 Q1087 1859 1097 1849 Q1107 1839 1107 1823 Q1107 1776 1086 1732.5 Q1065 1689 1029 1655.5 Q993 1622 944 1602 Q895 1582 838 1582 Z " />
<glyph glyph-name="Gcircumflex" unicode="&#x11c;" horiz-adv-x="1442" d="M842 334 Q872 335 905 339.5 Q938 344 968 353 L968 607 Q968 649 1010 649 L1278 649 Q1290 649 1304.5 641.5 Q1319 634 1319 607 L1319 143 Q1319 129 1314.5 117.5 Q1310 106 1296 98 Q1208 42 1090.5 11 Q973 -20 842 -20 Q689 -20 555 38 Q421 96 320.5 196 Q220 296 162 430 Q104 564 104 717 Q104 819 130 912.5 Q156 1006 203.5 1087 Q251 1168 318 1234.5 Q385 1301 466.5 1348 Q548 1395 642 1421 Q736 1447 838 1447 Q903 1447 960 1438.5 Q1017 1430 1068 1413 Q1119 1396 1166 1371 Q1213 1346 1257 1314 Q1289 1290 1269 1260 L1110 1032 Q1099 1016 1083.5 1015 Q1068 1014 1053 1025 Q1009 1057 957 1076.5 Q905 1096 842 1096 Q758 1096 690.5 1066.5 Q623 1037 575 986 Q527 935 501 866 Q475 797 475 717 Q475 637 502.5 566.5 Q530 496 578.5 443.5 Q627 391 694.5 361.5 Q762 332 842 334 Z M1069 1739 Q1083 1725 1084 1709.5 Q1085 1694 1069 1679 L991 1604 Q976 1590 960.5 1590.5 Q945 1591 932 1604 L808 1727 L687 1602 Q674 1589 658.5 1588.5 Q643 1588 628 1602 L548 1679 Q532 1694 533 1709.5 Q534 1725 548 1739 L780 1970 Q785 1975 792.5 1979.5 Q800 1984 811 1984 Q822 1984 827.5 1981 Q833 1978 841 1970 L1069 1739 Z " />
<glyph glyph-name="Gdotaccent" unicode="&#x120;" horiz-adv-x="1442" d="M842 334 Q872 335 905 339.5 Q938 344 968 353 L968 607 Q968 649 1010 649 L1278 649 Q1290 649 1304.5 641.5 Q1319 634 1319 607 L1319 143 Q1319 129 1314.5 117.5 Q1310 106 1296 98 Q1208 42 1090.5 11 Q973 -20 842 -20 Q689 -20 555 38 Q421 96 320.5 196 Q220 296 162 430 Q104 564 104 717 Q104 819 130 912.5 Q156 1006 203.5 1087 Q251 1168 318 1234.5 Q385 1301 466.5 1348 Q548 1395 642 1421 Q736 1447 838 1447 Q903 1447 960 1438.5 Q1017 1430 1068 1413 Q1119 1396 1166 1371 Q1213 1346 1257 1314 Q1289 1290 1269 1260 L1110 1032 Q1099 1016 1083.5 1015 Q1068 1014 1053 1025 Q1009 1057 957 1076.5 Q905 1096 842 1096 Q758 1096 690.5 1066.5 Q623 1037 575 986 Q527 935 501 866 Q475 797 475 717 Q475 637 502.5 566.5 Q530 496 578.5 443.5 Q627 391 694.5 361.5 Q762 332 842 334 Z M696 1811 Q696 1835 708.5 1852 Q721 1869 753 1869 L913 1869 Q942 1869 953.5 1853 Q965 1837 965 1811 L965 1650 Q965 1620 951.5 1609.5 Q938 1599 913 1599 L753 1599 Q728 1599 712 1609.5 Q696 1620 696 1649 L696 1811 Z " />
<glyph glyph-name="Otilde" unicode="&#xd5;" horiz-adv-x="1636" d="M88 713 Q88 814 114 908 Q140 1002 188 1083.5 Q236 1165 303 1232 Q370 1299 451.5 1347 Q533 1395 627 1421 Q721 1447 822 1447 Q923 1447 1017 1421 Q1111 1395 1192.5 1347 Q1274 1299 1341 1232 Q1408 1165 1456 1083.5 Q1504 1002 1530 908 Q1556 814 1556 713 Q1556 612 1530 518 Q1504 424 1456 343 Q1408 262 1341 195 Q1274 128 1192.5 80 Q1111 32 1017 6 Q923 -20 822 -20 Q670 -20 536.5 37.5 Q403 95 303 194.5 Q203 294 145.5 427.5 Q88 561 88 713 Z M457 713 Q457 634 484.5 564.5 Q512 495 560.5 443.5 Q609 392 676 362 Q743 332 822 332 Q901 332 968 362 Q1035 392 1084 443.5 Q1133 495 1160 564.5 Q1187 634 1187 713 Q1187 792 1160 861.5 Q1133 931 1084 983 Q1035 1035 968 1064.5 Q901 1094 822 1094 Q743 1094 676 1064.5 Q609 1035 560.5 983 Q512 931 484.5 861.5 Q457 792 457 713 Z M618 1584 Q610 1574 600.5 1574 Q591 1574 582 1579 Q573 1584 564.5 1591.5 Q556 1599 550 1605 L489 1664 Q475 1677 469 1685 Q463 1693 464 1700 Q465 1707 471.5 1716 Q478 1725 489 1741 Q528 1799 584 1831.5 Q640 1864 703 1864 Q739 1863 774.5 1847.5 Q810 1832 842 1814 Q874 1796 901 1781.5 Q928 1767 948 1767 Q974 1767 988 1780 Q1002 1793 1022 1817 Q1040 1840 1058.5 1839 Q1077 1838 1092 1822 L1179 1734 Q1192 1721 1191 1710 Q1190 1699 1185 1693 Q1142 1627 1082 1590 Q1022 1553 950 1553 Q912 1553 878 1568 Q844 1583 813.5 1601 Q783 1619 756 1634 Q729 1649 705 1649 Q687 1649 674 1642.5 Q661 1636 651.5 1626 Q642 1616 634 1605 Q626 1594 618 1584 Z " />
<glyph glyph-name="OE" unicode="&#x152;" horiz-adv-x="2331" d="M79 717 Q79 819 105.5 913 Q132 1007 180 1089 Q228 1171 295 1238 Q362 1305 444 1353 Q526 1401 620 1427.5 Q714 1454 816 1454 Q917 1454 1010 1428 Q1103 1402 1185 1354 L1185 1383 Q1185 1426 1227 1426 L2183 1426 Q2225 1426 2225 1383 L2225 1140 Q2225 1098 2183 1098 L1557 1098 L1557 868 L2051 868 Q2074 868 2086 858.5 Q2098 849 2098 826 L2098 626 Q2098 584 2051 584 L1557 584 L1557 340 L2201 340 Q2243 340 2243 298 L2243 42 Q2243 0 2201 0 L1227 0 Q1185 0 1185 42 L1185 79 Q1103 31 1010 5.5 Q917 -20 816 -20 Q714 -20 620 6.5 Q526 33 444 81 Q362 129 295 196 Q228 263 180 345 Q132 427 105.5 521 Q79 615 79 717 Z M449 717 Q449 637 476.5 567 Q504 497 552.5 444.5 Q601 392 668.5 361.5 Q736 331 816 331 Q896 331 963.5 361.5 Q1031 392 1079.5 444.5 Q1128 497 1155.5 567 Q1183 637 1183 717 Q1183 797 1155.5 867 Q1128 937 1079.5 989.5 Q1031 1042 963.5 1072.5 Q896 1103 816 1103 Q736 1103 668.5 1072.5 Q601 1042 552.5 989.5 Q504 937 476.5 867 Q449 797 449 717 Z " />
<glyph glyph-name="Oslashacute" unicode="&#x1fe;" horiz-adv-x="1636" d="M88 713 Q88 814 114 908 Q140 1002 188 1083.5 Q236 1165 303 1232 Q370 1299 451.5 1347 Q533 1395 627 1421 Q721 1447 822 1447 Q885 1447 949 1436 L982 1510 Q1005 1558 1050 1558 L1367 1558 Q1415 1558 1395 1510 L1292 1277 Q1352 1226 1401 1163.5 Q1450 1101 1484.5 1029.5 Q1519 958 1537.5 878 Q1556 798 1556 713 Q1556 612 1530 518 Q1504 424 1456 343 Q1408 262 1341 195 Q1274 128 1192.5 80 Q1111 32 1017 6 Q923 -20 822 -20 Q794 -20 767 -18 Q740 -16 713 -12 L682 -85 Q660 -131 613 -131 L295 -131 Q248 -131 269 -85 L367 138 Q303 188 251.5 251.5 Q200 315 163.5 388 Q127 461 107.5 543 Q88 625 88 713 Z M457 713 Q457 634 484.5 564.5 Q512 495 560.5 443.5 Q609 392 676 362 Q743 332 822 332 Q901 332 968 362 Q1035 392 1084 443.5 Q1133 495 1160 564.5 Q1187 634 1187 713 Q1187 792 1160 861.5 Q1133 931 1084 983 Q1035 1035 968 1064.5 Q901 1094 822 1094 Q743 1094 676 1064.5 Q609 1035 560.5 983 Q512 931 484.5 861.5 Q457 792 457 713 Z M974 1625 Q961 1596 949.5 1589 Q938 1582 915 1582 L722 1582 Q708 1582 695.5 1592.5 Q683 1603 691 1630 L764 1843 Q772 1867 785 1876.5 Q798 1886 823 1886 L1041 1886 Q1059 1886 1067.5 1869.5 Q1076 1853 1068 1834 L974 1625 Z " />
<glyph glyph-name="Ncommaaccent" unicode="&#x145;" horiz-adv-x="1538" d="M514 873 L514 42 Q514 0 467 0 L199 0 Q157 0 157 42 L157 1383 Q157 1400 167.5 1413 Q178 1426 199 1426 L510 1426 Q531 1426 548 1414.5 Q565 1403 578 1383 L1059 605 L1059 1383 Q1059 1400 1069.5 1413 Q1080 1426 1102 1426 L1369 1426 Q1384 1426 1400 1414 Q1416 1402 1416 1383 L1416 42 Q1416 0 1369 0 L1088 0 Q1044 0 1019 42 L514 873 Z M611 -143 Q611 -108 626 -96.5 Q641 -85 661 -85 L870 -85 Q923 -85 923 -140 L923 -294 Q923 -372 906.5 -429.5 Q890 -487 867 -527.5 Q844 -568 818.5 -593.5 Q793 -619 774 -632 Q761 -640 746.5 -643.5 Q732 -647 715 -631 L659 -578 Q651 -570 650 -562.5 Q649 -555 652 -548.5 Q655 -542 660 -537 Q665 -532 669 -528 Q688 -510 699.5 -492 Q711 -474 717 -458.5 Q723 -443 724.5 -430 Q726 -417 726 -408 L726 -399 Q726 -392 722 -387 Q718 -382 708 -382 L657 -382 Q637 -382 624 -369.5 Q611 -357 611 -331 L611 -143 Z " />
<glyph glyph-name="Hbar" unicode="&#x126;" horiz-adv-x="1538" d="M1009 421 L527 421 L527 42 Q527 0 481 0 L199 0 Q157 0 157 42 L157 1383 Q157 1400 167.5 1413 Q178 1426 199 1426 L487 1426 Q499 1426 513 1418.5 Q527 1411 527 1385 L527 1226 L1009 1226 L1009 1383 Q1009 1400 1019.5 1413 Q1030 1426 1051 1426 L1339 1426 Q1351 1426 1365 1418.5 Q1379 1411 1379 1385 L1379 42 Q1379 0 1333 0 L1051 0 Q1009 0 1009 42 L1009 421 Z M527 760 L1009 760 L1009 921 L527 921 L527 760 Z " />
<glyph glyph-name="AE" unicode="&#xc6;" horiz-adv-x="2092" d="M1013 239 L570 239 L436 42 Q428 30 421.5 22 Q415 14 409 9 Q403 4 395.5 2 Q388 0 378 0 L63 0 Q42 0 36.5 14 Q31 28 43 45 L995 1383 Q1012 1406 1021.5 1415.5 Q1031 1425 1051 1426 L1970 1426 Q2012 1426 2012 1383 L2012 1137 Q2012 1095 1970 1095 L1384 1095 L1384 868 L1388 868 L1819 868 Q1841 868 1853.5 857.5 Q1866 847 1866 824 L1866 626 Q1866 584 1819 584 L1388 584 L1384 584 L1384 329 L1988 329 Q2031 329 2031 287 L2031 42 Q2031 0 1988 0 L1055 0 Q1013 0 1013 42 L1013 239 Z M1013 557 L1013 886 L788 557 L1013 557 Z " />
<glyph glyph-name="Iogonek" unicode="&#x12e;" horiz-adv-x="684" d="M157 1383 Q157 1426 199 1426 L486 1426 Q528 1426 528 1383 L528 42 Q528 0 486 0 L199 0 Q157 0 157 42 L157 1383 Z M632 -226 Q632 -278 613.5 -325 Q595 -372 561.5 -408 Q528 -444 481.5 -465 Q435 -486 379 -486 Q327 -486 281 -466.5 Q235 -447 200 -412.5 Q165 -378 144.5 -331.5 Q124 -285 124 -232 Q124 -183 143 -138 Q162 -93 193 -59 L387 135 Q412 158 433 135 Q453 115 474 94.5 Q495 74 515 53 Q539 31 515 7 L325 -183 Q315 -193 311 -205 Q307 -217 306 -231 Q307 -266 329 -282.5 Q351 -299 378 -300 Q391 -300 404 -296 Q417 -292 427 -283.5 Q437 -275 443 -262 Q449 -249 448 -231 Q448 -211 458.5 -201.5 Q469 -192 482 -192 L599 -192 Q610 -192 621 -201 Q632 -210 632 -226 Z " />
<glyph glyph-name="Eth" unicode="&#xd0;" horiz-adv-x="1484" d="M38 792 Q38 816 52.5 828.5 Q67 841 82 841 L153 841 L153 1381 Q153 1401 163.5 1414 Q174 1427 197 1427 L670 1427 Q771 1427 864.5 1402 Q958 1377 1039 1331 Q1120 1285 1187 1220.5 Q1254 1156 1302 1076.5 Q1350 997 1376 904.5 Q1402 812 1402 711 Q1402 610 1376 518 Q1350 426 1302.5 347 Q1255 268 1188 204 Q1121 140 1039.5 94.5 Q958 49 864.5 24.5 Q771 0 670 0 L197 0 Q180 0 166.5 8 Q153 16 153 40 L153 589 L82 589 Q68 589 53 599.5 Q38 610 38 632 L38 792 Z M605 344 Q689 344 766 368 Q843 392 902.5 439.5 Q962 487 997.5 557.5 Q1033 628 1033 722 Q1033 800 1002.5 866 Q972 932 920 980 Q868 1028 798.5 1055 Q729 1082 651 1082 L524 1082 L524 841 L633 841 Q676 841 676 796 L676 632 Q676 610 662 599.5 Q648 589 627 589 L524 589 L524 344 L605 344 Z " />
<glyph glyph-name="Oslash" unicode="&#xd8;" horiz-adv-x="1636" d="M88 713 Q88 814 114 908 Q140 1002 188 1083.5 Q236 1165 303 1232 Q370 1299 451.5 1347 Q533 1395 627 1421 Q721 1447 822 1447 Q885 1447 949 1436 L982 1510 Q1005 1558 1050 1558 L1367 1558 Q1415 1558 1395 1510 L1292 1277 Q1352 1226 1401 1163.5 Q1450 1101 1484.5 1029.5 Q1519 958 1537.5 878 Q1556 798 1556 713 Q1556 612 1530 518 Q1504 424 1456 343 Q1408 262 1341 195 Q1274 128 1192.5 80 Q1111 32 1017 6 Q923 -20 822 -20 Q794 -20 767 -18 Q740 -16 713 -12 L682 -85 Q660 -131 613 -131 L295 -131 Q248 -131 269 -85 L367 138 Q303 188 251.5 251.5 Q200 315 163.5 388 Q127 461 107.5 543 Q88 625 88 713 Z M457 713 Q457 634 484.5 564.5 Q512 495 560.5 443.5 Q609 392 676 362 Q743 332 822 332 Q901 332 968 362 Q1035 392 1084 443.5 Q1133 495 1160 564.5 Q1187 634 1187 713 Q1187 792 1160 861.5 Q1133 931 1084 983 Q1035 1035 968 1064.5 Q901 1094 822 1094 Q743 1094 676 1064.5 Q609 1035 560.5 983 Q512 931 484.5 861.5 Q457 792 457 713 Z " />
<glyph glyph-name="exclam" unicode="&#x21;" horiz-adv-x="653" d="M156 1537 Q156 1579 199 1579 L456 1579 Q498 1579 498 1537 L498 544 Q498 502 456 502 L199 502 Q156 502 156 544 L156 1537 Z M156 295 Q156 321 170.5 332 Q185 343 200 343 L452 343 Q466 343 475 337.5 Q484 332 489 325 Q494 318 496 310 Q498 302 498 298 L498 44 Q498 30 492.5 21.5 Q487 13 479.5 8 Q472 3 464 1.5 Q456 0 452 0 L200 0 Q196 0 189 2 Q182 4 174.5 8.5 Q167 13 161.5 21.5 Q156 30 156 44 L156 295 Z " />
<glyph glyph-name="quotedbl" unicode="&#x22;" horiz-adv-x="803" d="M90 1383 Q90 1426 132 1426 L284 1426 Q297 1426 304.5 1422 Q312 1418 315.5 1411.5 Q319 1405 320 1397.5 Q321 1390 321 1383 L321 1006 Q321 985 312.5 977 Q304 969 287 969 L121 969 Q98 969 94 982.5 Q90 996 90 1011 L90 1383 Z M459 1383 Q459 1426 501 1426 L653 1426 Q666 1426 673.5 1422 Q681 1418 684.5 1411.5 Q688 1405 689 1397.5 Q690 1390 690 1383 L690 1006 Q690 985 681.5 977 Q673 969 656 969 L490 969 Q467 969 463 982.5 Q459 996 459 1011 L459 1383 Z " />
<glyph glyph-name="numbersign" unicode="&#x23;" horiz-adv-x="1210" d="M676 340 L531 340 L531 40 Q531 0 491 0 L311 0 Q271 0 271 40 L271 340 L144 340 Q135 340 121.5 349 Q108 358 108 377 L108 564 Q108 581 119 592.5 Q130 604 147 604 L271 604 L271 828 L144 828 Q135 828 121.5 837.5 Q108 847 108 867 L108 1052 Q108 1069 119 1081.5 Q130 1094 147 1094 L271 1094 L271 1391 Q271 1432 311 1432 L491 1432 Q531 1432 531 1391 L531 1094 L676 1094 L676 1391 Q676 1432 716 1432 L896 1432 Q936 1432 936 1391 L936 1094 L1082 1094 Q1099 1094 1108.5 1083 Q1118 1072 1118 1054 L1118 867 Q1118 848 1106 838 Q1094 828 1079 828 L936 828 L936 604 L1082 604 Q1118 604 1118 566 L1118 377 Q1118 360 1106 350 Q1094 340 1079 340 L936 340 L936 40 Q936 0 896 0 L716 0 Q676 0 676 40 L676 340 Z M531 604 L676 604 L676 828 L531 828 L531 604 Z " />
<glyph glyph-name="dollar" unicode="&#x24;" horiz-adv-x="1235" d="M105 225 Q96 235 88.5 245 Q81 255 78 265.5 Q75 276 78.5 287 Q82 298 94 310 L260 468 Q280 486 297.5 481 Q315 476 334 460 Q361 437 394.5 411 Q428 385 466 362.5 Q504 340 546 325 Q588 310 632 310 Q681 310 712 321 Q743 332 761 350 Q779 368 785.5 392.5 Q792 417 792 444 Q792 474 771 497.5 Q750 521 719 538.5 Q688 556 654 569 Q620 582 594 591 Q478 631 390 678 Q302 725 243 782 Q184 839 153.5 908 Q123 977 123 1061 Q123 1132 147.5 1193 Q172 1254 217.5 1302.5 Q263 1351 328 1385.5 Q393 1420 473 1438 L473 1576 Q473 1610 506 1610 L709 1610 Q743 1610 743 1576 L743 1448 Q796 1439 848.5 1422.5 Q901 1406 948.5 1383 Q996 1360 1037 1331 Q1078 1302 1108 1269 Q1128 1246 1128 1225 Q1128 1204 1105 1181 L958 1024 Q938 1003 917.5 1010 Q897 1017 877 1035 Q852 1058 815.5 1083.5 Q779 1109 737 1124 Q711 1133 670 1137 Q629 1141 589.5 1133.5 Q550 1126 521.5 1104.5 Q493 1083 493 1042 Q493 1015 508 995.5 Q523 976 552 959.5 Q581 943 622 927.5 Q663 912 716 895 Q818 861 902.5 824 Q987 787 1047.5 736.5 Q1108 686 1141.5 616 Q1175 546 1175 446 Q1175 354 1143.5 277.5 Q1112 201 1055 142.5 Q998 84 919 45.5 Q840 7 746 -8 L746 -151 Q746 -186 712 -186 L507 -186 Q472 -186 472 -151 L472 3 Q419 18 368 40.5 Q317 63 270 92 Q223 121 181.5 154.5 Q140 188 105 225 Z " />
<glyph glyph-name="ampersand" unicode="&#x26;" horiz-adv-x="1722" d="M795 743 Q797 756 805 765.5 Q813 775 826 773 Q901 762 971 748.5 Q1041 735 1098 723 Q1155 711 1195 702 Q1235 693 1250 690 Q1283 684 1306 699.5 Q1329 715 1343 737 Q1360 762 1371 796 Q1376 810 1386 814 Q1396 818 1409 815 L1636 768 Q1649 765 1652.5 754.5 Q1656 744 1654 730 Q1654 729 1651 711.5 Q1648 694 1639 666.5 Q1630 639 1615.5 604.5 Q1601 570 1577.5 535.5 Q1554 501 1521.5 470 Q1489 439 1445 418 Q1401 397 1344.5 390 Q1288 383 1217 396 L1152 408 L1149 389 Q1129 274 1077 196 Q1025 118 951.5 70 Q878 22 789.5 1 Q701 -20 609 -20 Q509 -20 417.5 14 Q326 48 256 108.5 Q186 169 144 253 Q102 337 102 437 Q102 556 154.5 650 Q207 744 295 804 Q275 831 257.5 862.5 Q240 894 227 927 Q214 960 206 993.5 Q198 1027 198 1060 Q198 1140 231.5 1210 Q265 1280 321 1332 Q377 1384 451 1414 Q525 1444 605 1444 Q706 1444 782 1413.5 Q858 1383 908.5 1331 Q959 1279 984.5 1209 Q1010 1139 1010 1060 Q1010 1051 1010.5 1039.5 Q1011 1028 1009 1017.5 Q1007 1007 1001 1000 Q995 993 983 993 L776 991 Q763 991 756.5 994 Q750 997 747 1001.5 Q744 1006 743.5 1011 Q743 1016 743 1020 Q743 1046 736 1069 Q729 1092 714.5 1109 Q700 1126 678.5 1136 Q657 1146 628 1146 Q598 1146 576.5 1136.5 Q555 1127 541.5 1111 Q528 1095 522 1074.5 Q516 1054 516 1032 Q516 999 526.5 974 Q537 949 551.5 932 Q566 915 581.5 905.5 Q597 896 608 893 Q617 891 626 888 Q635 885 642 880.5 Q649 876 652.5 869 Q656 862 654 852 L613 656 Q610 644 605 639 Q600 634 592 632.5 Q584 631 573 631.5 Q562 632 549 632 Q526 631 507 619 Q488 607 475 586.5 Q462 566 455 539.5 Q448 513 448 483 Q448 437 464 402.5 Q480 368 507 344.5 Q534 321 568.5 309 Q603 297 639 297 Q682 297 717 307 Q752 317 777 338 Q802 359 815.5 391 Q829 423 829 467 L778 482 Q770 484 758 490.5 Q746 497 749 514 L795 743 Z " />
<glyph glyph-name="quotesingle" unicode="&#x27;" horiz-adv-x="586" d="M140 1383 Q140 1426 182 1426 L334 1426 Q347 1426 354.5 1422 Q362 1418 365.5 1411.5 Q369 1405 370 1397.5 Q371 1390 371 1383 L371 1006 Q371 985 362.5 977 Q354 969 337 969 L171 969 Q148 969 144 982.5 Q140 996 140 1011 L140 1383 Z " />
<glyph glyph-name="parenleft" unicode="&#x28;" horiz-adv-x="772" d="M127 717 Q127 828 139.5 953.5 Q152 1079 184.5 1210 Q217 1341 273 1473 Q329 1605 415 1729 Q437 1761 471 1740 L708 1592 Q725 1581 727 1566.5 Q729 1552 718 1537 Q674 1477 640 1402.5 Q606 1328 580.5 1248.5 Q555 1169 537.5 1089.5 Q520 1010 509.5 939 Q499 868 494 810.5 Q489 753 489 717 Q489 682 493.5 624 Q498 566 509 494.5 Q520 423 537.5 343 Q555 263 580.5 183 Q606 103 640 28.5 Q674 -46 718 -107 Q729 -122 727 -136.5 Q725 -151 708 -162 L471 -310 Q437 -331 415 -299 Q329 -175 273 -42.5 Q217 90 184.5 222 Q152 354 139.5 480 Q127 606 127 717 Z " />
<glyph glyph-name="parenright" unicode="&#x29;" horiz-adv-x="774" d="M625.008 717 Q625.008 828 612.509 953.5 Q600.009 1079 567.511 1210 Q535.013 1341 479.017 1473 Q423.02 1605 337.025 1729 Q315.027 1761 281.029 1740 L44.0432 1592 Q27.0443 1581 25.0444 1566.5 Q23.0445 1552 34.0438 1537 Q78.0411 1477 112.039 1402.5 Q146.037 1328 171.535 1248.5 Q197.034 1169 214.533 1089.5 Q232.032 1010 242.531 939 Q253.03 868 258.03 810.5 Q263.03 753 263.03 717 Q263.03 682 258.53 624 Q254.03 566 243.031 494.5 Q232.032 423 214.533 343 Q197.034 263 171.535 183 Q146.037 103 112.039 28.5 Q78.0411 -46 34.0438 -107 Q23.0445 -122 25.0444 -136.5 Q27.0443 -151 44.0432 -162 L281.029 -310 Q315.027 -331 337.025 -299 Q423.02 -175 479.017 -42.5 Q535.013 90 567.511 222 Q600.009 354 612.509 480 Q625.008 606 625.008 717 Z " />
<glyph glyph-name="asterisk" unicode="&#x2a;" horiz-adv-x="943" d="M97 666 Q97 680 105.5 690.5 Q114 701 127 699 L293 675 L185 811 Q180 817 181.5 830 Q183 843 197 851 L365 948 Q377 955 390.5 952.5 Q404 950 409 938 L472 782 L536 934 Q541 948 552.5 949.5 Q564 951 576 944 L747 846 Q759 838 762.5 826 Q766 814 758 804 L652 674 L821 696 Q835 698 842 689 Q849 680 850 666 L850 469 Q850 455 841 445.5 Q832 436 819 438 L656 464 L754 336 Q763 325 758.5 314 Q754 303 742 296 L572 197 Q559 190 547 193.5 Q535 197 530 209 L471 364 L408 204 Q405 197 393.5 191.5 Q382 186 368 194 L200 292 Q188 299 183 311.5 Q178 324 186 335 L288 466 L125 441 Q117 440 106.5 447.5 Q96 455 96 471 L97 666 Z " />
<glyph glyph-name="plus" unicode="&#x2b;" horiz-adv-x="864" d="M313 206 Q299 206 290 214.5 Q281 223 281 237 L281 437 L90 437 Q82 437 71.5 444 Q61 451 61 467 L61 684 Q61 698 69.5 707 Q78 716 92 716 L281 716 L281 918 Q281 932 289 939.5 Q297 947 311 947 L550 947 Q564 947 572 938 Q580 929 580 916 L580 716 L773 716 Q787 716 794.5 708 Q802 700 802 686 L802 467 Q802 453 793 445 Q784 437 771 437 L580 437 L580 235 Q580 227 573 216.5 Q566 206 550 206 L313 206 Z " />
<glyph glyph-name="comma" unicode="&#x2c;" horiz-adv-x="586" d="M131 255 Q131 290 146 301.5 Q161 313 181 313 L420 313 Q473 313 473 258 L473 88 Q473 2 456.5 -61 Q440 -124 416 -169 Q392 -214 364.5 -243 Q337 -272 316 -290 Q305 -300 294 -305.5 Q283 -311 266 -296 L179 -210 Q169 -202 168 -194 Q167 -186 170 -178.5 Q173 -171 179 -165.5 Q185 -160 189 -156 Q218 -130 236 -97 Q254 -64 254 -19 Q254 -15 251.5 -7 Q249 1 238 1 L177 1 Q157 1 144 13.5 Q131 26 131 52 L131 255 Z " />
<glyph glyph-name="hyphen" unicode="&#x2d;" horiz-adv-x="1056" d="M159 668 Q159 695 175 709 Q191 723 208 723 L851 723 Q901 723 901 672 L901 486 Q901 461 885 449 Q869 437 845 437 L208 437 Q192 437 175.5 449 Q159 461 159 486 L159 668 Z " />
<glyph glyph-name="period" unicode="&#x2e;" horiz-adv-x="586" d="M131 283 Q131 304 143 313.5 Q155 323 169 323 L435 323 Q447 323 455 318.5 Q463 314 467 307.5 Q471 301 472.5 294.5 Q474 288 474 284 L474 38 Q474 26 469 18.5 Q464 11 457.5 7 Q451 3 444.5 1.5 Q438 0 435 0 L169 0 Q166 0 159.5 1.5 Q153 3 146.5 7 Q140 11 135.5 18.5 Q131 26 131 38 L131 283 Z " />
<glyph glyph-name="slash" unicode="&#x2f;" horiz-adv-x="1060" d="M1011 1383 Q1029 1426 987.004 1426 L701.021 1426 Q660.024 1426 640.025 1383 L38.0616 42 Q30.0621 24 35.0618 12 Q40.0615 0 61.0602 0 L350.043 0 Q393.04 0 411.039 42 L1011 1383 Z " />
<glyph glyph-name="zero" unicode="0" horiz-adv-x="1659" d="M98 711 Q98 813 124 906.5 Q150 1000 197.5 1082 Q245 1164 312 1231 Q379 1298 460.5 1346 Q542 1394 635.5 1420 Q729 1446 831 1446 Q932 1446 1026 1420 Q1120 1394 1201 1346 Q1282 1298 1349 1231 Q1416 1164 1464 1082 Q1512 1000 1538 906 Q1564 812 1564 711 Q1564 610 1538 516.5 Q1512 423 1464 341.5 Q1416 260 1349 193 Q1282 126 1201 78.5 Q1120 31 1026 5 Q932 -21 831 -21 Q729 -21 635.5 5 Q542 31 460.5 78.5 Q379 126 312 193 Q245 260 197.5 341.5 Q150 423 124 516.5 Q98 610 98 711 Z M460 712 Q460 632 488.5 562 Q517 492 567 440 Q617 388 685 358.5 Q753 329 832 329 Q911 329 979 358.5 Q1047 388 1097.5 440 Q1148 492 1176.5 562 Q1205 632 1205 712 Q1205 792 1176.5 862 Q1148 932 1097.5 984.5 Q1047 1037 979 1067.5 Q911 1098 832 1098 Q753 1098 685 1067.5 Q617 1037 567 984.5 Q517 932 488.5 862 Q460 792 460 712 Z " />
<glyph glyph-name="one" unicode="1" horiz-adv-x="720" d="M569 1426 Q581 1426 587 1422 Q593 1418 595.5 1412.5 Q598 1407 598 1400.5 Q598 1394 598 1389 L598 42 Q598 0 553 0 L281 0 Q254 0 246 12.5 Q238 25 238 40 L238 1097 L81 1028 Q67 1023 59.5 1026.5 Q52 1030 52 1041 L52 1278 Q52 1295 55 1307 Q58 1319 76 1327 L212 1397 Q252 1417 276.5 1421.5 Q301 1426 316 1426 L569 1426 Z " />
<glyph glyph-name="two" unicode="2" horiz-adv-x="1238" d="M179 906 Q168 906 162 910.5 Q156 915 153 920.5 Q150 926 149.5 932 Q149 938 149 942 Q146 1000 154.5 1062 Q163 1124 186 1183 Q209 1242 246 1295 Q283 1348 335 1387.5 Q387 1427 455.5 1450 Q524 1473 610 1473 Q702 1473 790 1446 Q878 1419 947 1363 Q1016 1307 1058.5 1220.5 Q1101 1134 1101 1014 Q1101 952 1085 898.5 Q1069 845 1046.5 801.5 Q1024 758 999 725.5 Q974 693 955 673 L630 316 L1057 316 Q1083 316 1095 305.5 Q1107 295 1107 266 L1107 44 Q1107 22 1097 11 Q1087 0 1062 0 L184 0 Q175 0 165 1.5 Q155 3 146.5 7.5 Q138 12 132.5 19.5 Q127 27 127 40 L127 172 Q127 185 128 194 Q129 203 132 210.5 Q135 218 140 225.5 Q145 233 154 244 L700 890 Q709 899 719.5 911 Q730 923 739 939 Q748 955 754 975 Q760 995 760 1021 Q760 1050 747 1073 Q734 1096 713 1112 Q692 1128 666.5 1136.5 Q641 1145 616 1145 Q570 1145 540.5 1127 Q511 1109 493.5 1080 Q476 1051 469.5 1012.5 Q463 974 463 934 Q463 912 450 908 Q437 904 421 905 L179 906 Z " />
<glyph glyph-name="seven" unicode="7" horiz-adv-x="1260" d="M1182 1427 Q1209 1427 1222.5 1416.5 Q1236 1406 1240 1390.5 Q1244 1375 1240.5 1357 Q1237 1339 1228 1324 L545 33 Q537 17 523 8.5 Q509 0 492 0 L143 0 Q128 0 121.5 5 Q115 10 113.5 17 Q112 24 114 31 Q116 38 118 42 L662 1087 L143 1087 Q124 1087 111 1097.5 Q98 1108 98 1131 L98 1383 Q98 1403 110 1415 Q122 1427 142 1427 L1182 1427 Z " />
<glyph glyph-name="eight" unicode="8" horiz-adv-x="1190" d="M496 1035 Q496 990 525.5 961 Q555 932 598 932 Q619 932 637.5 940 Q656 948 670 961.5 Q684 975 692 994 Q700 1013 700 1035 Q700 1056 692 1074.5 Q684 1093 670 1107 Q656 1121 637.5 1129 Q619 1137 598 1137 Q577 1137 558 1129 Q539 1121 525.5 1107 Q512 1093 504 1074.5 Q496 1056 496 1035 Z M432 473 Q432 438 444.5 407 Q457 376 478.5 353.5 Q500 331 530.5 318 Q561 305 597 305 Q631 305 660 318 Q689 331 710 354 Q731 377 743 407.5 Q755 438 755 474 Q755 508 744 539.5 Q733 571 712 594 Q691 617 662 631 Q633 645 597 645 Q559 645 529 631 Q499 617 477 593.5 Q455 570 443.5 538.5 Q432 507 432 473 Z M191 1048 Q191 1128 223 1200 Q255 1272 310 1326 Q365 1380 439 1412 Q513 1444 596 1444 Q675 1444 749 1412.5 Q823 1381 879.5 1327 Q936 1273 970 1201 Q1004 1129 1004 1048 Q1004 988 982.5 926.5 Q961 865 926 819 Q1010 754 1057.5 664.5 Q1105 575 1105 465 Q1105 363 1068 275 Q1031 187 964 122 Q897 57 803.5 20 Q710 -17 596 -17 Q491 -17 398 17.5 Q305 52 235 115.5 Q165 179 124 268.5 Q83 358 83 469 Q83 581 133 669 Q183 757 263 819 Q231 866 211 927.5 Q191 989 191 1048 Z " />
<glyph glyph-name="nine" unicode="9" horiz-adv-x="1196" d="M707.032 45.0844 Q696.033 25.0856 681.034 12.5863 Q666.035 0.0870972 642.036 0.0870972 L357.053 0.0870972 Q339.055 0.0870972 330.555 6.08673 Q322.056 12.0864 319.556 20.0859 Q317.056 28.0854 319.556 37.5848 Q322.056 47.0842 326.055 54.0838 L554.041 434.061 Q516.044 438.06 479.546 448.06 Q443.048 458.059 408.05 472.058 Q339.055 501.057 281.558 547.554 Q224.062 594.051 182.064 654.047 Q140.067 714.044 117.068 786.039 Q94.0695 858.035 94.0695 937.03 Q94.0695 1043.02 135.067 1135.52 Q176.064 1228.01 247.06 1297.01 Q318.056 1366 414.05 1405.5 Q510.044 1445 620.037 1445 Q731.031 1445 826.525 1407 Q922.019 1369 992.515 1300.51 Q1063.01 1232.01 1103.51 1137.02 Q1144.01 1042.02 1144.01 928.03 Q1144.01 862.034 1127.51 801.538 Q1111.01 741.042 1079.01 684.045 L707.032 45.0844 Z M787.027 940.03 Q787.027 978.027 775.528 1011.03 Q764.029 1044.02 742.53 1068.02 Q721.031 1092.02 690.533 1105.52 Q660.035 1119.02 623.037 1119.02 Q586.039 1119.02 555.541 1105.52 Q525.043 1092.02 504.044 1068.02 Q483.046 1044.02 471.546 1011.03 Q460.047 978.027 460.047 940.03 Q460.047 903.032 471.546 870.034 Q483.046 837.036 504.044 812.538 Q525.043 788.039 555.541 773.54 Q586.039 759.041 623.037 759.041 Q660.035 759.041 690.533 773.54 Q721.031 788.039 742.53 812.538 Q764.029 837.036 775.528 870.034 Q787.027 903.032 787.027 940.03 Z " />
<glyph glyph-name="colon" unicode="&#x3a;" horiz-adv-x="586" d="M131 273 Q131 294 143 303.5 Q155 313 169 313 L405 313 Q417 313 425 308.5 Q433 304 437 297.5 Q441 291 442.5 284.5 Q444 278 444 274 L444 38 Q444 26 439 18.5 Q434 11 427.5 7 Q421 3 414.5 1.5 Q408 0 405 0 L169 0 Q166 0 159.5 1.5 Q153 3 146.5 7 Q140 11 135.5 18.5 Q131 26 131 38 L131 273 Z M131 1185 Q131 1206 143 1215.5 Q155 1225 169 1225 L405 1225 Q417 1225 425 1220.5 Q433 1216 437 1209.5 Q441 1203 442.5 1196.5 Q444 1190 444 1186 L444 950 Q444 938 439 930.5 Q434 923 427.5 919 Q421 915 414.5 913.5 Q408 912 405 912 L169 912 Q166 912 159.5 913.5 Q153 915 146.5 919 Q140 923 135.5 930.5 Q131 938 131 950 L131 1185 Z " />
<glyph glyph-name="semicolon" unicode="&#x3b;" horiz-adv-x="586" d="M125 255 Q125 290 140 301.5 Q155 313 175 313 L414 313 Q467 313 467 258 L467 88 Q467 2 450.5 -61 Q434 -124 410 -169 Q386 -214 358.5 -243 Q331 -272 310 -290 Q299 -300 288 -305.5 Q277 -311 260 -296 L173 -210 Q163 -202 162 -194 Q161 -186 164 -178.5 Q167 -171 173 -165.5 Q179 -160 183 -156 Q212 -130 230 -97 Q248 -64 248 -19 Q248 -15 245.5 -7 Q243 1 232 1 L171 1 Q151 1 138 13.5 Q125 26 125 52 L125 255 Z M125 1195 Q125 1216 137 1225.5 Q149 1235 163 1235 L429 1235 Q441 1235 449 1230.5 Q457 1226 461 1219.5 Q465 1213 466.5 1206.5 Q468 1200 468 1196 L468 950 Q468 938 463 930.5 Q458 923 451.5 919 Q445 915 438.5 913.5 Q432 912 429 912 L163 912 Q160 912 153.5 913.5 Q147 915 140.5 919 Q134 923 129.5 930.5 Q125 938 125 950 L125 1195 Z " />
<glyph glyph-name="less" unicode="&#x3c;" horiz-adv-x="854" d="M67 563 Q56 574 53 588 Q50 602 67 619 L596 1147 Q600 1151 606 1154.5 Q612 1158 618.5 1159 Q625 1160 632.5 1158.5 Q640 1157 647 1150 L793 1007 Q804 996 806 978.5 Q808 961 795 948 L433 591 L795 234 Q808 221 806 203.5 Q804 186 793 175 L647 32 Q640 25 632.5 23.5 Q625 22 618.5 23 Q612 24 606 27.5 Q600 31 596 35 L67 563 Z " />
<glyph glyph-name="equal" unicode="&#x3d;" horiz-adv-x="1056" d="M201 255 Q181 255 170 265 Q159 275 159 296 L159 459 Q159 476 164 485.5 Q169 495 175.5 500 Q182 505 189 506 Q196 507 201 507 L840 507 Q857 507 869.5 496 Q882 485 882 465 L882 300 Q882 284 872 269.5 Q862 255 840 255 L201 255 Z M201 651 Q181 651 170 661 Q159 671 159 692 L159 855 Q159 872 164 881.5 Q169 891 175.5 896 Q182 901 189 902 Q196 903 201 903 L840 903 Q857 903 869.5 892 Q882 881 882 861 L882 696 Q882 680 872 665.5 Q862 651 840 651 L201 651 Z " />
<glyph glyph-name="greater" unicode="&#x3e;" horiz-adv-x="854" d="M814.004 563 Q825.003 574 828.003 588 Q831.003 602 814.004 619 L285.036 1147 Q281.037 1151 275.037 1154.5 Q269.037 1158 262.538 1159 Q256.038 1160 248.539 1158.5 Q241.039 1157 234.039 1150 L88.0484 1007 Q77.0491 996 75.0492 978.5 Q73.0493 961 86.0485 948 L448.026 591 L86.0485 234 Q73.0493 221 75.0492 203.5 Q77.0491 186 88.0484 175 L234.039 32 Q241.039 25 248.539 23.5 Q256.038 22 262.538 23 Q269.037 24 275.037 27.5 Q281.037 31 285.036 35 L814.004 563 Z " />
<glyph glyph-name="question" unicode="&#x3f;" horiz-adv-x="1091" d="M706 574 Q705 545 696 530.5 Q687 516 656 515 L419 513 Q404 513 396 518 Q388 523 384 531 Q380 539 379 549.5 Q378 560 378 572 L378 703 Q378 738 393 770.5 Q408 803 435.5 834.5 Q463 866 502.5 898 Q542 930 592 963 Q623 984 646 1000 Q669 1016 684 1034.5 Q699 1053 706.5 1078 Q714 1103 714 1141 Q714 1167 703 1193.5 Q692 1220 670.5 1242 Q649 1264 618 1277.5 Q587 1291 547 1291 Q505 1291 474.5 1272.5 Q444 1254 424 1227.5 Q404 1201 394.5 1172.5 Q385 1144 385 1125 Q385 1088 374.5 1079 Q364 1070 337 1070 L103 1070 Q84 1070 74.5 1081 Q65 1092 65 1109 Q65 1224 103 1315 Q141 1406 207.5 1469 Q274 1532 364 1565 Q454 1598 559 1598 Q616 1598 673 1583 Q730 1568 782.5 1540 Q835 1512 881 1472 Q927 1432 960.5 1382 Q994 1332 1013.5 1273 Q1033 1214 1033 1148 Q1033 1058 1015.5 999.5 Q998 941 968 900.5 Q938 860 899.5 831.5 Q861 803 819 773 Q802 761 782 748.5 Q762 736 745 721 Q728 706 717 687 Q706 668 706 642 L706 574 Z M369 268 Q369 294 383.5 305 Q398 316 413 316 L665 316 Q679 316 688 310.5 Q697 305 702 298 Q707 291 709 283 Q711 275 711 271 L711 47 Q711 33 705.5 24.5 Q700 16 692.5 11 Q685 6 677 4.5 Q669 3 665 3 L413 3 Q409 3 402 5 Q395 7 387.5 11.5 Q380 16 374.5 24.5 Q369 33 369 47 L369 268 Z " />
<glyph glyph-name="percent" unicode="&#x25;" horiz-adv-x="1788" d="M1142 1398 Q1147 1406 1155.5 1416 Q1164 1426 1189 1426 L1335 1426 Q1350 1426 1357.5 1421.5 Q1365 1417 1367.5 1409.5 Q1370 1402 1367.5 1393.5 Q1365 1385 1361 1377 L606 31 Q599 20 593 13.5 Q587 7 581 4 Q575 1 569 0.5 Q563 0 556 0 L412 0 Q397 0 393.5 12 Q390 24 396 35 L1142 1398 Z M44 1073 Q44 1154 74.5 1225.5 Q105 1297 158.5 1349.5 Q212 1402 283.5 1432.5 Q355 1463 436 1463 Q518 1463 589.5 1432.5 Q661 1402 714 1349 Q767 1296 798 1225 Q829 1154 829 1073 Q829 992 798 921 Q767 850 714 797 Q661 744 589 713.5 Q517 683 436 683 Q355 683 283.5 713.5 Q212 744 158.5 797 Q105 850 74.5 921 Q44 992 44 1073 Z M277 1073 Q277 1039 289 1009 Q301 979 322 956.5 Q343 934 372 921 Q401 908 436 908 Q471 908 500.5 921 Q530 934 551 956.5 Q572 979 584 1009 Q596 1039 596 1073 Q596 1107 584 1137 Q572 1167 551 1189.5 Q530 1212 501 1225 Q472 1238 437 1238 Q402 1238 372.5 1225 Q343 1212 322 1190 Q301 1168 289 1137.5 Q277 1107 277 1073 Z M970 375 Q970 456 1000.5 527.5 Q1031 599 1084.5 651.5 Q1138 704 1209.5 734.5 Q1281 765 1362 765 Q1444 765 1515.5 734.5 Q1587 704 1640 651 Q1693 598 1724 527 Q1755 456 1755 375 Q1755 294 1724 223 Q1693 152 1640 99 Q1587 46 1515 15.5 Q1443 -15 1362 -15 Q1281 -15 1209.5 15.5 Q1138 46 1084.5 99 Q1031 152 1000.5 223 Q970 294 970 375 Z M1203 375 Q1203 341 1215 311 Q1227 281 1248 258.5 Q1269 236 1298 223 Q1327 210 1362 210 Q1397 210 1426.5 223 Q1456 236 1477 258.5 Q1498 281 1510 311 Q1522 341 1522 375 Q1522 409 1510 439 Q1498 469 1477 491.5 Q1456 514 1427 527 Q1398 540 1363 540 Q1328 540 1298.5 527 Q1269 514 1248 492 Q1227 470 1215 439.5 Q1203 409 1203 375 Z " />
<glyph glyph-name="section" unicode="&#xa7;" horiz-adv-x="1044" d="M783 1131 Q755 1166 724 1188.5 Q693 1211 662 1224.5 Q631 1238 601.5 1243.5 Q572 1249 548 1249 Q519 1249 489 1241 Q459 1233 434 1217 Q409 1201 393 1176.5 Q377 1152 377 1120 Q377 1095 395 1079 Q413 1063 443.5 1051 Q474 1039 515 1028.5 Q556 1018 602 1003 Q687 976 748.5 946 Q810 916 849.5 880 Q889 844 908 801 Q927 758 927 704 Q927 570 825 492 Q890 440 914.5 367.5 Q939 295 916 211 Q900 152 863.5 104 Q827 56 774.5 22 Q722 -12 656.5 -30.5 Q591 -49 518 -49 Q475 -49 422.5 -39.5 Q370 -30 316.5 -5.5 Q263 19 212 61.5 Q161 104 122 169 Q110 189 114 199 Q118 209 124 214 L241 295 Q245 298 251 301 Q257 304 263.5 304 Q270 304 278 299.5 Q286 295 295 283 Q310 262 333 240 Q356 218 385.5 200 Q415 182 449.5 170.5 Q484 159 522 159 Q551 159 581.5 167 Q612 175 637.5 191.5 Q663 208 679 231.5 Q695 255 695 287 Q695 308 681 323 Q667 338 643 350.5 Q619 363 586 373.5 Q553 384 514 395 Q418 422 348 452.5 Q278 483 232.5 520 Q187 557 165 602 Q143 647 143 704 Q143 772 166.5 823 Q190 874 242 914 Q178 965 155 1039.5 Q132 1114 154 1196 Q170 1255 206.5 1303 Q243 1351 295.5 1384.5 Q348 1418 413 1436.5 Q478 1455 552 1455 Q624 1455 681.5 1440.5 Q739 1426 785.5 1398.5 Q832 1371 869.5 1331.5 Q907 1292 939 1243 Q957 1216 954.5 1206 Q952 1196 937 1186 L829 1111 Q809 1099 783 1131 Z M546 608 Q566 608 591 612 Q616 616 638 626.5 Q660 637 675 655 Q690 673 690 701 Q690 721 681 736 Q672 751 656 762 Q640 773 617.5 781 Q595 789 569 795 Q546 800 513 799.5 Q480 799 450 790 Q420 781 398.5 761 Q377 741 377 708 Q377 699 381 682.5 Q385 666 402 649.5 Q419 633 453 620.5 Q487 608 546 608 Z " />
<glyph glyph-name="foursuperior" unicode="&#x2074;" horiz-adv-x="716" d="M66 758 Q48 758 40.5 768.5 Q33 779 33 792 Q33 800 35 810 Q37 820 42 827 L395 1406 Q400 1414 409 1421.5 Q418 1429 436 1429 L555 1429 Q570 1429 576.5 1423.5 Q583 1418 583 1399 L583 948 L641 948 Q654 948 662.5 941 Q671 934 671 920 L671 784 Q671 772 661.5 765.5 Q652 759 645 759 L583 759 L583 669 Q583 641 552 641 L421 641 Q394 641 394 669 L394 758 L66 758 Z M401 946 L401 1106 L308 946 L401 946 Z " />
<glyph glyph-name="paragraph" unicode="&#xb6;" horiz-adv-x="1465" d="M1288 1424 Q1318 1424 1328 1414 Q1338 1404 1338 1387 L1338 1241 Q1338 1226 1326.5 1212.5 Q1315 1199 1285 1199 L1151 1199 L1151 34 Q1151 18 1144.5 9 Q1138 0 1121 0 L948 0 Q934 0 926 6.5 Q918 13 918 30 L918 1199 L710 1199 L710 30 Q710 16 704.5 8 Q699 0 682 0 L507 0 Q494 0 486 8.5 Q478 17 478 31 L478 644 Q395 644 321.5 674 Q248 704 192.5 756.5 Q137 809 105 880 Q73 951 73 1032 Q73 1113 103.5 1184.5 Q134 1256 187 1309 Q240 1362 311 1393 Q382 1424 462 1424 L1288 1424 Z " />
<glyph glyph-name="eogonek" unicode="&#x119;" horiz-adv-x="1359" d="M991 393 Q1001 401 1017 402 Q1033 403 1044 388 L1167 218 Q1182 198 1182 182.5 Q1182 167 1165 153 Q1105 100 1046 66 Q987 32 930 13 Q873 -6 816.5 -13 Q760 -20 705 -20 Q622 -20 543 2.5 Q464 25 394.5 66 Q325 107 266.5 164 Q208 221 166 291 Q124 361 100.5 441 Q77 521 77 608 Q77 738 122 852 Q167 966 248.5 1051.5 Q330 1137 444 1186.5 Q558 1236 695 1236 Q752 1236 816.5 1221 Q881 1206 944 1174 Q1007 1142 1065 1092.5 Q1123 1043 1167 974 Q1211 905 1237.5 816 Q1264 727 1264 616 Q1264 577 1256.5 553 Q1249 529 1231.5 516.5 Q1214 504 1187 499.5 Q1160 495 1121 495 L429 495 Q442 446 468.5 407 Q495 368 531 340.5 Q567 313 611 298 Q655 283 703 283 Q772 283 817 294 Q862 305 893.5 321.5 Q925 338 947 357 Q969 376 991 393 Z M684 946 Q643 946 607 932 Q571 918 541 894 Q511 870 487.5 838 Q464 806 448 769 L933 769 Q895 854 831 900 Q767 946 684 946 Z M1236 -119 Q1236 -171 1217.5 -218 Q1199 -265 1165.5 -301 Q1132 -337 1085.5 -358 Q1039 -379 983 -379 Q931 -379 885 -359.5 Q839 -340 804 -305.5 Q769 -271 748.5 -224.5 Q728 -178 728 -125 Q728 -76 747 -31 Q766 14 797 48 L991 242 Q1016 265 1037 242 Q1057 222 1078 201.5 Q1099 181 1119 160 Q1143 138 1119 114 L929 -76 Q919 -86 915 -98 Q911 -110 910 -124 Q911 -159 933 -175.5 Q955 -192 982 -193 Q995 -193 1008 -189 Q1021 -185 1031 -176.5 Q1041 -168 1047 -155 Q1053 -142 1052 -124 Q1052 -104 1062.5 -94.5 Q1073 -85 1086 -85 L1203 -85 Q1214 -85 1225 -94 Q1236 -103 1236 -119 Z " />
<glyph glyph-name="emacron" unicode="&#x113;" horiz-adv-x="1359" d="M991 393 Q1001 401 1017 402 Q1033 403 1044 388 L1167 218 Q1182 198 1182 182.5 Q1182 167 1165 153 Q1105 100 1046 66 Q987 32 930 13 Q873 -6 816.5 -13 Q760 -20 705 -20 Q622 -20 543 2.5 Q464 25 394.5 66 Q325 107 266.5 164 Q208 221 166 291 Q124 361 100.5 441 Q77 521 77 608 Q77 738 122 852 Q167 966 248.5 1051.5 Q330 1137 444 1186.5 Q558 1236 695 1236 Q752 1236 816.5 1221 Q881 1206 944 1174 Q1007 1142 1065 1092.5 Q1123 1043 1167 974 Q1211 905 1237.5 816 Q1264 727 1264 616 Q1264 577 1256.5 553 Q1249 529 1231.5 516.5 Q1214 504 1187 499.5 Q1160 495 1121 495 L429 495 Q442 446 468.5 407 Q495 368 531 340.5 Q567 313 611 298 Q655 283 703 283 Q772 283 817 294 Q862 305 893.5 321.5 Q925 338 947 357 Q969 376 991 393 Z M684 946 Q643 946 607 932 Q571 918 541 894 Q511 870 487.5 838 Q464 806 448 769 L933 769 Q895 854 831 900 Q767 946 684 946 Z M267 1582 Q267 1596 275.5 1605 Q284 1614 298 1614 L1048 1614 Q1062 1614 1069.5 1606 Q1077 1598 1077 1584 L1077 1423 Q1077 1409 1068 1401 Q1059 1393 1046 1393 L296 1393 Q288 1393 277.5 1400 Q267 1407 267 1423 L267 1582 Z " />
<glyph glyph-name="Ldot" unicode="&#x13f;" horiz-adv-x="1131" d="M121 1383 Q121 1404 133 1415 Q145 1426 162 1426 L449 1426 Q491 1426 491 1383 L491 340 L1023 340 Q1065 340 1065 298 L1065 42 Q1065 0 1023 0 L162 0 Q121 0 121 42 L121 1383 Z M775 896 Q775 920 787.5 937 Q800 954 832 954 L992 954 Q1021 954 1032.5 938 Q1044 922 1044 896 L1044 735 Q1044 705 1030.5 694.5 Q1017 684 992 684 L832 684 Q807 684 791 694.5 Q775 705 775 734 L775 896 Z " />
</font>
</svg>
